↑↓Torrent.by
Поиск
Логин: Регистрация
Пароль: Восстановить пароль
Загрузка...

Первому игроку приготовиться / Ready Player One (2018) HDRip от MIXTV | Android

Скачать pervomu-igroku-prigotovitsya-ready-player-one-2018-hdrip-ot-mixtv-android.torrent
U Магнитная ссылка Размер: 2.40 GB Раздают: 66 Качают: 26 Добавлен: 2018-07-08 17:43:41
Первому игроку приготовиться / Ready Player One (2018) HDRip от MIXTV | Android

Название: Первому игроку приготовиться
Оригинальное название: Ready Player One
Год выхода: 2018
Жанр: Фантастика, Боевик, Приключения
Режиссер: Стивен Спилберг
В ролях: Тай Шеридан, Оливия Кук, Бен Мендельсон, Лина Уэйте, ТиДжей Миллер, Саймон Пегг, Марк Райлэнс, Филип Чжао, Уин Морисаки, Ханна Джон-Кэймен, Ралф Айнесон, Сьюзэн Линч, Клер Хиггинс, Лоуренс Спэллман, Пердита Викс, Джоэль МакКормэк, Кит Коннор, Лео Хеллер, Линн Уилморт

О фильме:
Действие фильма происходит в 2045 году, мир погружается в хаос и находится на грани коллапса. Люди ищут спасения в игре OASIS — огромной вселенной виртуальной реальности. Ее создатель, гениальный и эксцентричный Джеймс Холлидэй, оставляет уникальное завещание. Все его колоссальное состояние получит игрок, первым обнаруживший цифровое «пасхальное яйцо», которое миллиардер спрятал где-то на просторах OASISа. Запущенный им квест охватывает весь мир. Совершенно негероический парень по имени Уэйд Уоттс решает принять участие в состязании, с головой бросаясь в головокружительную, искажающую реальность погоню за сокровищами по фантастической вселенной, полной загадок, открытий и опасностей.

 
Страна: США
Студия: Warner Bros. Pictures
Перевод: Дублированный (Лицензия)

Файл
Формат: MP4
Кодек: h.264
Качество: HDRip 720p
Видео: 1280x534, 2050 Kbps, 23.976 fps
Звук:
Аудио #1: AAC, (LC), 2 ch, 132 Kbps | Русский
Аудио #2: AAC, (LC), 2 ch, 132 Kbps | Турецкий
Аудио #3: AAC, (LC), 2 ch, 132 Kbps | Английский
Субтитры: Русские (Forced, Full), английские (Full)

Семпл


[+] Mediainfo
General
Complete name                            : Ready.Player.One.2018.BDRip.720p.x264.MULTi.MIXTV.mp4
Format                                   : MPEG-4
Format profile                           : Base Media
Codec ID                                 : isom (isom/iso2/avc1/mp41)
File size                                : 2.40 GiB
Duration                                 : 2 h 19 min
Overall bit rate mode                    : Variable
Overall bit rate                         : 2 457 kb/s
Movie name                               : Ready.Player.One.2018.BDRip.720p.x264 from MIXTV
Writing application                      : Lavf57.83.100

Video
ID                                       : 1
Format                                   : AVC
Format/Info                              : Advanced Video Codec
Format profile                           : High@L4.1
Format settings                          : CABAC / 9 Ref Frames
Format settings, CABAC                   : Yes
Format settings, RefFrames               : 9 frames
Codec ID                                 : avc1
Codec ID/Info                            : Advanced Video Coding
Duration                                 : 2 h 19 min
Bit rate                                 : 2 050 kb/s
Width                                    : 1 280 pixels
Height                                   : 534 pixels
Display aspect ratio                     : 2.40:1
Frame rate mode                          : Variable
Frame rate                               : 23.976 (24000/1001) FPS
Minimum frame rate                       : 23.564 FPS
Maximum frame rate                       : 24.390 FPS
Color space                              : YUV
Chroma subsampling                       : 4:2:0
Bit depth                                : 8 bits
Scan type                                : Progressive
Bits/(Pixel*Frame)                       : 0.125
Stream size                              : 2.00 GiB (83%)
Title                                    : Ready.Player.One.2018
Writing library                          : x264 core 155 r2893 b00bcaf
Encoding settings                        : cabac=1 / ref=9 / deblock=1:-1:-1 / analyse=0x3:0x133 / me=umh / subme=9 / psy=1 / psy_rd=1.00:0.15 / mixed_ref=1 / me_range=24 / chroma_me=1 / trellis=2 / 8x8dct=1 / cqm=0 / deadzone=21,11 / fast_pskip=1 / chroma_qp_offset=-3 / threads=6 / lookahead_threads=1 / sliced_threads=0 / nr=0 / decimate=1 / interlaced=0 / bluray_compat=0 / constrained_intra=0 / bframes=6 / b_pyramid=2 / b_adapt=2 / b_bias=0 / direct=3 / weightb=1 / open_gop=0 / weightp=2 / keyint=240 / keyint_min=24 / scenecut=40 / intra_refresh=0 / rc_lookahead=60 / rc=2pass / mbtree=1 / bitrate=2050 / ratetol=1.0 / qcomp=0.60 / qpmin=0 / qpmax=69 / qpstep=4 / cplxblur=20.0 / qblur=0.5 / vbv_maxrate=62500 / vbv_bufsize=78125 / nal_hrd=none / filler=0 / ip_ratio=1.40 / aq=1:1.00
Language                                 : English
Color range                              : Limited
Color primaries                          : BT.709
Transfer characteristics                 : BT.709
Matrix coefficients                      : BT.709

Audio #1
ID                                       : 2
Format                                   : AAC
Format/Info                              : Advanced Audio Codec
Format profile                           : LC
Codec ID                                 : mp4a-40-2
Duration                                 : 2 h 19 min
Bit rate mode                            : Constant
Bit rate                                 : 132 kb/s
Channel(s)                               : 2 channels
Channel positions                        : Front: L R
Sampling rate                            : 48.0 kHz
Frame rate                               : 46.875 FPS (1024 SPF)
Compression mode                         : Lossy
Stream size                              : 130 MiB (5%)
Title                                    : Dub [License]
Language                                 : Russian
Default                                  : Yes
Alternate group                          : 1

Audio #2
ID                                       : 3
Format                                   : AAC
Format/Info                              : Advanced Audio Codec
Format profile                           : LC
Codec ID                                 : mp4a-40-2
Duration                                 : 2 h 19 min
Bit rate mode                            : Constant
Bit rate                                 : 132 kb/s
Channel(s)                               : 2 channels
Channel positions                        : Front: L R
Sampling rate                            : 48.0 kHz
Frame rate                               : 46.875 FPS (1024 SPF)
Compression mode                         : Lossy
Stream size                              : 130 MiB (5%)
Title                                    : Dublaj [TR]
Language                                 : Turkish
Default                                  : No
Alternate group                          : 1

Audio #3
ID                                       : 4
Format                                   : AAC
Format/Info                              : Advanced Audio Codec
Format profile                           : LC
Codec ID                                 : mp4a-40-2
Duration                                 : 2 h 19 min
Bit rate mode                            : Constant
Bit rate                                 : 132 kb/s
Channel(s)                               : 2 channels
Channel positions                        : Front: L R
Sampling rate                            : 48.0 kHz
Frame rate                               : 46.875 FPS (1024 SPF)
Compression mode                         : Lossy
Stream size                              : 131 MiB (5%)
Title                                    : Original
Language                                 : English
Default                                  : No
Alternate group                          : 1

Text #1
ID                                       : 5
Format                                   : Timed Text
Muxing mode                              : sbtl
Codec ID                                 : tx3g
Duration                                 : 7 min 0 s
Bit rate mode                            : Variable
Bit rate                                 : 25 b/s
Stream size                              : 1.30 KiB (0%)
Title                                    : Forced
Language                                 : Russian
Default                                  : Yes
Forced                                   : No
Alternate group                          : 3

Text #2
ID                                       : 6
Format                                   : Timed Text
Muxing mode                              : sbtl
Codec ID                                 : tx3g
Duration                                 : 2 h 11 min
Bit rate mode                            : Variable
Bit rate                                 : 97 b/s
Stream size                              : 93.2 KiB (0%)
Title                                    : Full
Language                                 : Russian
Default                                  : No
Forced                                   : No
Alternate group                          : 3

Text #3
ID                                       : 7
Format                                   : Timed Text
Muxing mode                              : sbtl
Codec ID                                 : tx3g
Duration                                 : 2 h 9 min
Bit rate mode                            : Variable
Bit rate                                 : 66 b/s
Stream size                              : 62.6 KiB (0%)
Title                                    : Full
Language                                 : English
Default                                  : No
Forced                                   : No
Alternate group                          : 3



Скриншоты:
[+] Всего файлов в раздаче - 1:
Ready.Player.One.2018.BDRip.720p.x264.MULTi.MIXTV.mp42.40 GB

Текущая раздача:
ДатаКомментарии    РазмерПиры
2018-07-08 U Первому игроку приготовиться / Ready Player One (2018) HDRip от MIXTV | Android 2.40 GB ↑ 66 ↓ 26

Показать еще раздачи по запросу первому:
2018-07-17 U Первому игроку приготовиться / Ready Player One (2018) BDRip от HQ-ViDEO | D | Лицензия 2.18 GB ↑ 62 ↓ 35
2018-07-13 U Первому игроку приготовиться / Ready Player One (2018) BDRip от ExKinoRay | Лицензия 2.18 GB ↑ 300 ↓ 55
2018-07-13 U Первому игроку приготовиться / Ready Player One (2018) BDRip от ExKinoRay | Лицензия 1.46 GB ↑ 36 ↓ 25
2018-07-10 U Первому игроку приготовиться / Ready Player One (2018) BDRip 1080p от Ash61 | 3D-Video | halfOU | Лицензия 13.90 GB ↑ 166 ↓ 212
2018-07-10 U Первому игроку приготовиться / Ready Player One (2018) BDRemux 1080р от ExKinoRay | D, P | 3D-Video | Лицензия 37.89 GB ↑ 44 ↓ 53
2018-07-10 U Первому игроку приготовиться / Ready Player One (2018) Blu-ray CEE 1080р | 3D-Video | Лицензия 46.53 GB ↑ 57 ↓ 57
2018-07-09 U Первому игроку приготовиться / Ready Player One (2018) BDRip-HEVC 1080p от HEVC CLUB | Лицензия 9.70 GB ↑ 79 ↓ 21

Отзывы
Зарегистрируйтесь чтобы добавить комментарий.
Обратная связь
Copyleft ©