↑↓Torrent.by
Поиск
Логин: Регистрация
Пароль: Восстановить пароль
Загрузка...

Калибр / Calibre (2018) WEBRip 720p | L2

Скачать kalibr-calibre-2018-webrip-720p-l2.torrent
U Магнитная ссылка Размер: 3.44 GB Раздают: 204 Качают: 76 Добавлен: 2018-07-09 07:00:31
Калибр / Calibre (2018) WEBRip 720p | L2

Название: Калибр
Оригинальное название: Calibre
Год выхода: 2018
Жанр: Триллер
Режиссер: Мэтт Палмер
В ролях: Джек Лауден, Мартин МакКанн, Тони Кёрран, Иэн Пири, Кейт Брекен, Кэл Макэнинк, Камерон Джек, Джордж Энтон, Оливия Морган, Тереза Брэдли и другие
О фильме:
Двое закадычных друзей отправились в тихую горную деревню в Шотландии, чтобы провести выходные за охотой. Они были не готовы к тому, что произойдет дальше.

Страна: Великобритания,Wellington Films, Creative Scotland, Creative England
Продолжительность: 01:41:31
Перевод: Любительский (двухголосый закадровый) | HiWay Grope

Файл
Кодек: MPEG-4 AVC/x.264
Качество: WEBRip 720p
Видео: 1280x720, 25.000 fps, ~4377 kbps, 0.190 bit/pixel
Звук:
Аудио rus: AC3, 48 kHz, 6 ch, 384 Kbps
Субтитры: отсутствуют

Реклама: присутствует

Семпл

Релиз от: HiWay Grope


[+] MediaInfo:

General
Unique ID                   : 193383390453742426466223657868388081555 (0x917C49472B33FC1B9887CC5B4CC61F93)
Complete name               : D:Calibre.2018.720p.WEBRip.HiWayGropeCalibre.2018.720p.WEBRip.HiWayGrope.mkv
Format                      : Matroska
Format version              : Version 2
File size                   : 3.44 GiB
Duration                    : 1 h 41 min
Overall bit rate            : 4 857 kb/s
Encoded date                : UTC 2018-07-08 07:54:11
Writing application         : mkvmerge v3.3.0 ('Language') built on Mar 24 2010 14:59:24
Writing library             : libebml v0.8.0 + libmatroska v0.9.0

Video
ID                          : 1
Format                      : AVC
Format/Info                 : Advanced Video Codec
Format profile              : Main@L4.1
Format settings             : CABAC / 3 Ref Frames
Format settings, CABAC      : Yes
Format settings, ReFrames   : 3 frames
Codec ID                    : V_MPEG4/ISO/AVC
Duration                    : 1 h 41 min
Bit rate                    : 4 377 kb/s
Width                       : 1 280 pixels
Height                      : 720 pixels
Display aspect ratio        : 16:9
Frame rate mode             : Constant
Frame rate                  : 25.000 FPS
Standard                    : PAL
Color space                 : YUV
Chroma subsampling          : 4:2:0
Bit depth                   : 8 bits
Scan type                   : Progressive
Bits/(Pixel*Frame)          : 0.190
Stream size                 : 3.10 GiB (90%)
Language                    : English
Default                     : Yes
Forced                      : No
Color range                 : Limited
Color primaries             : BT.709
Transfer characteristics    : BT.709
Matrix coefficients         : BT.709

Audio
ID                          : 2
Format                      : AC-3
Format/Info                 : Audio Coding 3
Codec ID                    : A_AC3
Duration                    : 1 h 41 min
Bit rate mode               : Constant
Bit rate                    : 384 kb/s
Channel(s)                  : 6 channels
Channel positions           : Front: L C R, Side: L R, LFE
Sampling rate               : 48.0 kHz
Frame rate                  : 31.250 FPS (1536 SPF)
Bit depth                   : 16 bits
Compression mode            : Lossy
Stream size                 : 279 MiB (8%)
Service kind                : Complete Main
Default                     : Yes
Forced                      : No




Скриншоты:
[+] Всего файлов в раздаче - 1:
Calibre.2018.720p.WEBRip.HiWayGrope.mkv3.44 GB

Текущая раздача:
ДатаКомментарии    РазмерПиры
2018-07-09 U Калибр / Calibre (2018) WEBRip 720p | L2 3.44 GB ↑ 204 ↓ 76

Похожие раздачи по запросу - калибр:
2018-07-17 U Калибр / Calibre (2018) WEBRip от R.G.Resident | HDRezka Studio 739.55 MB ↑ 46 ↓ 27
2018-07-13 U Калибр / Calibre (2018) WEBRip 720p | HDRezka Studio 2.12 GB ↑ 154 ↓ 74
2018-07-13 U Калибр / Calibre (2018) WEBRip от R.G.Resident | HDRezka Studio 1.46 GB ↑ 240 ↓ 111
2018-07-13 U Калибр / Calibre (2018) WEB-DLRip 1080p | HDrezka Studio 1К3.48 GB ↑ 249 ↓ 134
2018-07-09 U Калибр / Calibre (2018) WEBRip | L2 1.36 GB ↑ 177 ↓ 65
2017-09-05 U Крупный калибр / Big Guns - Tony Arzenta (1973) DVDRip-AVC от ExKinoRay | P 2.98 GB ↑ 89 ↓ 28

Отзывы
Зарегистрируйтесь чтобы добавить комментарий.
Обратная связь
Copyleft ©