↑↓Torrent.by
Поиск
Логин: Регистрация
Пароль: Восстановить пароль
Загрузка...

Калибр / Calibre (2018) WEBRip | L2

Скачать kalibr-calibre-2018-webrip-l2.torrent
U Магнитная ссылка Размер: 1.36 GB Раздают: 177 Качают: 65 Добавлен: 2018-07-09 07:00:36
Калибр / Calibre (2018) WEBRip | L2

Название: Калибр
Оригинальное название: Calibre
Год выхода: 2018
Жанр: Триллер
Режиссер: Мэтт Палмер
В ролях: Джек Лауден, Мартин МакКанн, Тони Кёрран, Иэн Пири, Кейт Брекен, Кэл Макэнинк, Камерон Джек, Джордж Энтон, Оливия Морган, Тереза Брэдли и другие
О фильме:
Двое закадычных друзей отправились в тихую горную деревню в Шотландии, чтобы провести выходные за охотой. Они были не готовы к тому, что произойдет дальше.

Страна: Великобритания,Wellington Films, Creative Scotland, Creative England
Продолжительность: 01:41:31
Перевод: Любительский (двухголосый закадровый) | HiWay Grope

Файл
Кодек: XviD
Качество: WEBRip
Видео: 720x384, 25 fps, ~1519 kbps, 0.22 bit/pixel
Звук:
Аудио rus: AC3, 48 kHz, 6 ch, 384 Kbps
Субтитры: отсутствуют

Реклама: присутствует

Семпл

Релиз от: HiWay Grope


[+] MediaInfo:

General
Complete name               : D:Calibre.2018.WEBRip.HiWayGropeCalibre.2018.WEBRip.HiWayGrope.avi
Format                      : AVI
Format/Info                 : Audio Video Interleave
File size                   : 1.36 GiB
Duration                    : 1 h 41 min
Overall bit rate            : 1 913 kb/s
Writing application         : VirtualDubMod 1.5.10.2 (build 2540/release)
Writing library             : VirtualDubMod build 2540/release

Video
ID                          : 0
Format                      : MPEG-4 Visual
Format profile              : Advanced Simple@L5
Format settings             : BVOP1
Format settings, BVOP       : 1
Format settings, QPel       : No
Format settings, GMC        : No warppoints
Format settings, Matrix     : Default (H.263)
Codec ID                    : XVID
Codec ID/Hint               : XviD
Duration                    : 1 h 41 min
Bit rate                    : 1 519 kb/s
Width                       : 720 pixels
Height                      : 384 pixels
Display aspect ratio        : 1.85:1
Frame rate                  : 25.000 FPS
Color space                 : YUV
Chroma subsampling          : 4:2:0
Bit depth                   : 8 bits
Scan type                   : Progressive
Compression mode            : Lossy
Bits/(Pixel*Frame)          : 0.220
Stream size                 : 1.08 GiB (79%)
Writing library             : XviD 67

Audio
ID                          : 1
Format                      : AC-3
Format/Info                 : Audio Coding 3
Codec ID                    : 2000
Duration                    : 1 h 41 min
Bit rate mode               : Constant
Bit rate                    : 384 kb/s
Channel(s)                  : 6 channels
Channel positions           : Front: L C R, Side: L R, LFE
Sampling rate               : 48.0 kHz
Frame rate                  : 31.250 FPS (1536 SPF)
Bit depth                   : 16 bits
Compression mode            : Lossy
Stream size                 : 279 MiB (20%)
Alignment                   : Split accross interleaves
Interleave, duration        : 40  ms (1.00 video frame)
Interleave, preload duratio : 500  ms
Service kind                : Complete Main




Скриншоты:
[+] Всего файлов в раздаче - 1:
Calibre.2018.WEBRip.HiWayGrope.avi1.36 GB

Текущая раздача:
ДатаКомментарии    РазмерПиры
2018-07-09 U Калибр / Calibre (2018) WEBRip | L2 1.36 GB ↑ 177 ↓ 65

Похожие раздачи по запросу - калибр:
2018-07-17 U Калибр / Calibre (2018) WEBRip от R.G.Resident | HDRezka Studio 739.55 MB ↑ 46 ↓ 27
2018-07-13 U Калибр / Calibre (2018) WEBRip 720p | HDRezka Studio 2.12 GB ↑ 154 ↓ 74
2018-07-13 U Калибр / Calibre (2018) WEBRip от R.G.Resident | HDRezka Studio 1.46 GB ↑ 240 ↓ 111
2018-07-13 U Калибр / Calibre (2018) WEB-DLRip 1080p | HDrezka Studio 1К3.48 GB ↑ 249 ↓ 134
2018-07-09 U Калибр / Calibre (2018) WEBRip 720p | L2 3.44 GB ↑ 204 ↓ 76
2017-09-05 U Крупный калибр / Big Guns - Tony Arzenta (1973) DVDRip-AVC от ExKinoRay | P 2.98 GB ↑ 89 ↓ 28

Отзывы
Зарегистрируйтесь чтобы добавить комментарий.
Обратная связь
Copyleft ©