↑↓Torrent.by
Поиск
Логин: Регистрация
Пароль: Восстановить пароль
Загрузка...

Бегущая мишень / Moving Target (2000) DVDRip | P

Скачать beguschaya-mishen-moving-target-2000-dvdrip-p.torrent
U Магнитная ссылка Размер: 1.37 GB Раздают: 27 Качают: 12 Добавлен: 2018-07-09 10:16:31
Бегущая мишень / Moving Target (2000) DVDRip | P

Страна: Ирландия, США
Жанр:  Боевик
Год выпуска: 2000
Продолжительность: 01:27:41

Перевод: Профессиональный (многоголосый закадровый)
Субтитры: нет
Оригинальная аудиодорожка: английский

Режиссер: Пол Зиллер / Paul Ziller

В ролях: Дон "Дракон" Уилсон, Хиллари Кэвэна, Билл Мерфи, Терри МакМахон, Эйлин МакКлоски, Шон Колган, Нуала Келли, Мик Нолан, Стивен Холлэнд, Лиза Дван, Имонн Дрэйпер, Люк Хейден, Джо Хэнли, Фрэнк Мелиа, Джеймс П. Беннетт

Описание: Шквал неприятностей обрушивается на героя Дона «Дракона» Уилсона после того, как, вместо пакета с подарком для своей подружки, он по ошибке получает неизвестный сверток. Преследуемый по неизвестной причине полицией, террористами и шпионами, герой фильма вынужден вступить в смертельную схватку, чтобы узнать правду прежде, чем она уничтожит его. Прежде, чем он станет бегущей мишенью…

Релиз:

Качество видео: DVDRip  
Формат видео: AVI

Видео: XviD build 50, 640x480 (1.33:1), 23.976 fps, 1839 kbps avg
Аудио 1: Rus AC3 Dolby Digital, 48 kHz, 2/0 (L,R) ch, 192.00 kbps avg
Аудио 2: Eng AC3 Dolby Digital, 48 kHz, 2/0 (L,R) ch, 192.00 kbps avg


[+] MediaInfo

General
Complete name                    : D:Beguschaja.mishen.2000.XviD.DVDRip-Zanaves.avi
Format                           : AVI
Format/Info                      : Audio Video Interleave
File size                        : 1.37 GiB
Duration                         : 1h 27mn
Overall bit rate                 : 2 238 Kbps
Writing application              : VirtualDubMod 1.5.10.2 (build 2540/release)
Writing library                  : VirtualDubMod build 2540/release

Video
ID                               : 0
Format                           : MPEG-4 Visual
Format profile                   : AdvancedSimple@L5
Format settings, BVOP            : Yes
Format settings, QPel            : No
Format settings, GMC             : No warppoints
Format settings, Matrix          : Default (MPEG)
Codec ID                         : XVID
Codec ID/Hint                    : XviD
Duration                         : 1h 27mn
Bit rate                         : 1 840 Kbps
Width                            : 640 pixels
Height                           : 480 pixels
Display aspect ratio             : 4/3
Frame rate                       : 23.976 fps
Resolution                       : 24 bits
Colorimetry                      : 4:2:0
Scan type                        : Progressive
Bits/(Pixel*Frame)               : 0.250
Stream size                      : 1.13 GiB (82%)
Writing library                  : XviD 1.2.1 (UTC 2008-12-04)

Audio #1
ID                               : 1
Format                           : AC-3
Format/Info                      : Audio Coding 3
Codec ID                         : 2000
Duration                         : 1h 27mn
Bit rate mode                    : Constant
Bit rate                         : 192 Kbps
Channel(s)                       : 2 channels
Channel positions                : L R
Sampling rate                    : 48.0 KHz
Stream size                      : 120 MiB (9%)
Alignment                        : Split accross interleaves
Interleave, duration             : 42 ms (1.00 video frame)
Interleave, preload duration     : 500 ms

Audio #2
ID                               : 2
Format                           : AC-3
Format/Info                      : Audio Coding 3
Codec ID                         : 2000
Duration                         : 1h 27mn
Bit rate mode                    : Constant
Bit rate                         : 192 Kbps
Channel(s)                       : 2 channels
Channel positions                : L R
Sampling rate                    : 48.0 KHz
Stream size                      : 120 MiB (9%)
Alignment                        : Split accross interleaves
Interleave, duration             : 42 ms (1.00 video frame)
Interleave, preload duration     : 500 ms




Скриншоты:
[+] Всего файлов в раздаче - 1:
Beguschaja.mishen.2000.XviD.DVDRip-Zanaves.avi1.37 GB

Текущая раздача:
ДатаКомментарии    РазмерПиры
2018-07-09 U Бегущая мишень / Moving Target (2000) DVDRip | P 1 К 1.37 GB ↑ 27 ↓ 12

Похожие раздачи по запросу - бегущая:
2017-10-14 U Бегущая от любви [01-08 из 16] (2017) HDTVRip от Files-x 4.29 GB ↑ 48 ↓ 18
2014-12-12 U Уходящая натура / Бегущая строка [01-08 из 08] (2013) HDTVRip от MediaClub 5.69 GB ↑ 593 ↓ 168
2013-09-23 U Бегущая по волнам (2007) DVDRip 2.19 GB ↑ 153 ↓ 9

Отзывы
grisha241
Хороший фильм, смотрел его как-то однажды, спасибо.

Зарегистрируйтесь чтобы добавить комментарий.
Обратная связь
Copyleft ©