↑↓Torrent.by
Поиск
Логин: Регистрация
Пароль: Восстановить пароль
Загрузка...

Ева / Eva (2018) WEB-DLRip | iTunes

Скачать eva-2018-web-dlrip-itunes.torrent
U Магнитная ссылка Размер: 1.38 GB Раздают: 278 Качают: 71 Добавлен: 2018-07-09 17:20:43
Ева / Eva (2018) WEB-DLRip | iTunes

Ева / Eva

Страна: Франция  Бельгия
Производство: Arte France, Canal+ [fr], EuropaCorp, NJJ Entertainment, SCOPE Invest, Scope Pictures, TeleScope Film Distribution
Год выпуска: 2018
Жанр:  триллер
Продолжительность: 01:37:44

Режиссер: Бенуа Жако
Авторы сценария: Джеймс Хэдли Чейз, Бенуа Жако, Жиль Торан

В ролях: Изабель Юппер, Гаспар Ульель, Джулия Рой, Марк Барбе, Ришар Берри, Дидье Фламан, Эллен Мирес, Натали Шарад

Описание: Многообещающий писатель Бертран во время сильной метели оказывается под одной крышей с обольстительной и загадочной Евой. Одержимый этой роковой женщиной, он не подозревает, кто она на самом деле, и в какую опасную игру он вовлечён. Но в погоне за славой, он готов пойти на всё, чтобы получить незабываемый и шокирующий финал для, возможно, главного своего романа, героиней которого является Ева...

Перевод: Профессиональный (полное дублирование) | iTunes
Субтитры: нет

Качество: WEB-DLRip
Формат: АVI
Видео кодек: XviD
Аудио кодек: АС3
Видео: 720x304 (2.35:1), 25.000 fps, XviD build 67 ~1 625 kbps avg
Аудио: 48 kHz, AC3 Dolby Digital, 3/2 (L,C,R,l,r) + LFE ch, ~384 kbps

Дата премьеры (мир): 17 февраля 2018
Дата премьеры (РФ): 8 марта 2018, «Экспонента»

Семпл

Релиз от: ylnian


[+] Media Info
General
Полное имя                               : Eva.2018.WEB-DLRip-ylnian.avi
Формат                                   : AVI
Формат/Информация                        : Audio Video Interleave
Размер файла                             : 1,38 Гбайт
Продолжительность                        : 1 ч. 37 м.
Общий поток                              : 2019 Кбит/сек
Программа кодирования                    : VirtualDubMod 1.5.10.3 | (build 2550/release)
Библиотека кодирования                   : VirtualDubMod build 2550/release

Видео
Идентификатор                            : 0
Формат                                   : MPEG-4 Visual
Профиль формата                          : Advanced Simple@L5
Настройки формата                        : BVOP1
Параметр BVOP формата                    : 1
Параметр QPel формата                    : Нет
Параметр GMC формата                     : Без точки перехода
Параметр матрицы формата                 : Default (MPEG)
Идентификатор кодека                     : XVID
Идентификатор кодека/Подсказка           : XviD
Продолжительность                        : 1 ч. 37 м.
Битрейт                                  : 1625 Кбит/сек
Ширина                                   : 720 пикселей
Высота                                   : 304 пикселя
Соотношение сторон                       : 2,35:1
Частота кадров                           : 25,000 кадров/сек
Цветовое пространство                    : YUV
Субдискретизация насыщенности            : 4:2:0
Битовая глубина                          : 8 бит
Тип развёртки                            : Прогрессивная
Метод сжатия                             : С потерями
Бит/(Пиксели*Кадры)                      : 0.297
Размер потока                            : 1,11 Гбайт (80%)
Библиотека кодирования                   : XviD 67

Аудио
Идентификатор                            : 1
Формат                                   : AC-3
Формат/Информация                        : Audio Coding 3
Идентификатор кодека                     : 2000
Продолжительность                        : 1 ч. 37 м.
Вид битрейта                             : Постоянный
Битрейт                                  : 384 Кбит/сек
Каналы                                   : 6 каналов
Расположение каналов                     : Front: L C R, Side: L R, LFE
Частота                                  : 48,0 КГц
Частота кадров                           : 31,250 кадров/сек (1536 SPF)
Битовая глубина                          : 16 бит
Метод сжатия                             : С потерями
Размер потока                            : 268 Мбайт (19%)
Выравнивание                             : Разделение по промежуткам
Продолжительность промежутка             : 40  мс. (1,00 видеокадр)
Время предзагрузки промежутка            : 500  мс.
Заголовок                                : DUB - iTunes



Скриншоты:
[+] Всего файлов в раздаче - 1:
Eva.2018.WEB-DLRip-ylnian.avi1.38 GB

Текущая раздача:
ДатаКомментарии    РазмерПиры
2018-07-09 U Ева / Eva (2018) WEB-DLRip | iTunes 1.38 GB ↑ 278 ↓ 71

Показать еще раздачи по запросу dlrip:
Вчера U Я требую любви! [01-04 из 04] (2017) WEB-DLRip от Files-x 1К2.34 GB ↑ 97 ↓ 64
Вчера U Прощаться не будем (2018) WEB-DLRip | iTunes 1.46 GB ↑ 882 ↓ 452
Вчера U Талли / Tully (2018) WEB-DLRip-AVC | iTunes 1,014.22 MB ↑ 70 ↓ 23
Вчера U Sпарта [01-08 из 08] (2017) WEB-DLRip от Files-x 5.36 GB ↑ 69 ↓ 96
Вчера U Старушки в бегах [01-08 из 08] (2018) WEB-DLRip от Files-x 4.94 GB ↑ 87 ↓ 72
Вчера U Талли / Tully (2018) WEB-DLRip-AVC от OlLanDGroup | iTunes 1.31 GB ↑ 148 ↓ 28
Вчера U Талли / Tully (2018) WEB-DLRip от MegaPeer | iTunes 1К1.46 GB ↑ 952 ↓ 438

Отзывы
Зарегистрируйтесь чтобы добавить комментарий.
Обратная связь
Copyleft ©