↑↓Torrent.by
Поиск
Логин: Регистрация
Пароль: Восстановить пароль
Загрузка...

Эскобар / Loving Pablo (2017) WEB-DLRip-AVC от ivanes20031987 | iTunes

Скачать eskobar-loving-pablo-2017-web-dlrip-avc-ot-ivanes20031987-itunes.torrent
U Магнитная ссылка Размер: 1.44 GB Раздают: 162 Качают: 76 Добавлен: 2018-07-09 17:20:53
Эскобар / Loving Pablo (2017) WEB-DLRip-AVC от ivanes20031987 | iTunes

Название: Эскобар
Оригинальное название: Loving Pablo
Год выхода: 2017
Жанр: биография, драма, криминал
Режиссер: Фернандо Леон Де Араноа
В ролях: Хавьер Бардем, Пенелопа Крус, Питер Сарсгаард, Жульет Рестрепо, Оскар Хаэнада, Фреди Йэт, Рикардо Ниньо, Педро Кальво, Джованни Альварез, Дэвид Валенсиа

О фильме:
История восхождения Пабло Эскобара — его стремительного пути к миллиардам, могуществу и непростительным преступлениям. Во всесильного наркобарона влюбляется журналистка, чьи мемуары положены в основу фильма.

Страна: Испания, Болгария, США
Продолжительность: 01:45:54
Перевод: Профессиональный (дублированный) iTunes

Файл
Кодек: H.264
Качество: WEB-DLRip-AVC / WEB-DL 1080p
Видео: MPEG-4 AVC, 954x398 (2.40:1), 23.976 fps, ~1520 kbps avg, 0.167 bit/pixel
Звук: 48 kHz, AC3 Dolby Digital, 3/2 (L,C,R,l,r) + LFE ch, ~384 kbps avg
Субтитры: Нет

Семпл


[+] MediaInfo


Complete name               : D:РаздачаЭскобар (2017) WEB-DLRip-AVC_ivanes20031987.mkv
Format                      : Matroska
Format version              : Version 2
File size                   : 1.44 GiB
Duration                    : 1 h 45 min
Overall bit rate            : 1 943 kb/s
Movie name                  : Эскобар (2017) WEB-DLRip-AVC_ivanes20031987
Encoded date                : UTC 2018-07-09 08:16:10
Writing application         : mkvmerge v4.4.0 ('Die Wiederkehr') сборка от Jan  3 2011 21:40:45
Writing library             : libebml v1.0.0 + libmatroska v1.0.0
Cover                       : Yes
Attachments                 : cover.jpg

Video
ID                          : 1
Format                      : AVC
Format/Info                 : Advanced Video Codec
Format profile              : High@L4.1
Format settings, CABAC      : Yes
Format settings, RefFrames  : 14 frames
Codec ID                    : V_MPEG4/ISO/AVC
Duration                    : 1 h 45 min
Bit rate                    : 1 520 kb/s
Width                       : 954 pixels
Height                      : 398 pixels
Display aspect ratio        : 2.40:1
Frame rate mode             : Constant
Frame rate                  : 23.976 (24000/1001) FPS
Color space                 : YUV
Chroma subsampling          : 4:2:0
Bit depth                   : 8 bits
Scan type                   : Progressive
Bits/(Pixel*Frame)          : 0.167
Stream size                 : 1.12 GiB (78%)
Title                       : Rip by ivanes20031987
Writing library             : x264 core 155 r2901 7d0ff22
Encoding settings           : cabac=1 / ref=14 / deblock=1:-3:-3 / analyse=0x3:0x113 / me=umh / subme=10 / psy=1 / psy_rd=1.00:0.00 / mixed_ref=1 / me_range=32 / chroma_me=1 / trellis=2 / 8x8dct=1 / cqm=0 / deadzone=21,11 / fast_pskip=0 / chroma_qp_offset=-2 / threads=12 / lookahead_threads=3 / sliced_threads=0 / nr=0 / decimate=0 / interlaced=0 / bluray_compat=0 / constrained_intra=0 / bframes=14 / b_pyramid=2 / b_adapt=2 / b_bias=0 / direct=1 / weightb=1 / open_gop=0 / weightp=2 / keyint=240 / keyint_min=23 / scenecut=40 / intra_refresh=0 / rc_lookahead=60 / rc=crf / mbtree=0 / crf=17.2 / qcomp=0.60 / qpmin=0 / qpmax=69 / qpstep=4 / vbv_maxrate=50000 / vbv_bufsize=62500 / crf_max=0.0 / nal_hrd=none / filler=0 / ip_ratio=1.40 / pb_ratio=1.30 / aq=1:1.00
Default                     : Yes
Forced                      : No

Audio
ID                          : 2
Format                      : AC-3
Format/Info                 : Audio Coding 3
Format settings, Endianness : Big
Codec ID                    : A_AC3
Duration                    : 1 h 45 min
Bit rate mode               : Constant
Bit rate                    : 384 kb/s
Channel(s)                  : 6 channels
Channel positions           : Front: L C R, Side: L R, LFE
Sampling rate               : 48.0 kHz
Frame rate                  : 31.250 FPS (1536 SPF)
Bit depth                   : 16 bits
Compression mode            : Lossy
Stream size                 : 291 MiB (20%)
Title                       : iTunes
Language                    : Russian
Service kind                : Complete Main
Default                     : Yes
Forced                      : No




Скриншоты:
[+] Всего файлов в раздаче - 1:
Эскобар (2017) WEB-DLRip-AVC_ivanes20031987.mkv1.44 GB

Текущая раздача:
ДатаКомментарии    РазмерПиры
2018-07-09 U Эскобар / Loving Pablo (2017) WEB-DLRip-AVC от ivanes20031987 | iTunes 1.44 GB ↑ 162 ↓ 76

Показать еще раздачи по запросу эскобар:
2018-09-05 U Эскобар / Loving Pablo (2017) BDRip от MegaPeer | Лицензия 1.46 GB ↑ 80 ↓ 9
2018-08-26 U Эскобар / Loving Pablo (2017) BDRemux 1080p | iTunes 19.35 GB ↑ 43 ↓ 32
2018-08-26 U Эскобар / Loving Pablo (2017) BDRip 720p | iTunes 1К4.62 GB ↑ 65 ↓ 29
2018-08-25 U Эскобар / Loving Pablo (2017) BDRip 1080p | iTunes 8.63 GB ↑ 209 ↓ 104
2018-08-25 U Эскобар / Loving Pablo (2017) BDRip от MegaPeer | iTunes 1.42 GB ↑ 149 ↓ 99
2018-07-11 U Эскобар / Loving Pablo (2017) WEB-DLRip-AVC от ExKinoRay | iTunes 745.95 MB ↑ 38 ↓ 23
2018-07-10 U Эскобар / Loving Pablo (2017) WEB-DLRip от Scarabey | iTunes 1.45 GB ↑ 90 ↓ 66

Отзывы
Зарегистрируйтесь чтобы добавить комментарий.
Обратная связь
Copyleft ©