↑↓Torrent.by
Поиск
Логин: Регистрация
Пароль: Восстановить пароль
Загрузка...

Ева / Eva (2018) WEB-DL 1080р | iTunes

Скачать eva-2018-web-dl-1080r-itunes.torrent
U Магнитная ссылка Размер: 3.51 GB Раздают: 117 Качают: 67 Добавлен: 2018-07-09 17:21:02
Ева / Eva (2018) WEB-DL 1080р | iTunes

Ева / Eva

Страна: Франция  Бельгия
Производство: Arte France, Canal+ [fr], EuropaCorp, NJJ Entertainment, SCOPE Invest, Scope Pictures, TeleScope Film Distribution
Год выпуска: 2018
Жанр:  триллер
Продолжительность: 01:37:44

Режиссер: Бенуа Жако
Авторы сценария: Джеймс Хэдли Чейз, Бенуа Жако, Жиль Торан

В ролях: Изабель Юппер, Гаспар Ульель, Джулия Рой, Марк Барбе, Ришар Берри, Дидье Фламан, Эллен Мирес, Натали Шарад

Описание: Многообещающий писатель Бертран во время сильной метели оказывается под одной крышей с обольстительной и загадочной Евой. Одержимый этой роковой женщиной, он не подозревает, кто она на самом деле, и в какую опасную игру он вовлечён. Но в погоне за славой, он готов пойти на всё, чтобы получить незабываемый и шокирующий финал для, возможно, главного своего романа, героиней которого является Ева...

Перевод: Профессиональный (полное дублирование) | iTunes
Субтитры: нет

Качество: WEB-DL 1080р
Формат: МКV
Видео кодек: AVC
Аудио кодек: АС3 | AAC
Видео: 1920x808 (2.40:1), 25.000 fps, MPEG-4 AVC ~4 626 kbps avg
Аудио №1: 48 kHz, AC3 Dolby Digital, 3/2 (L,C,R,l,r) + LFE ch, ~384 kbps | RUS
Аудио №2: 48.0 kHz, Advanced Audio Codec LC, 2/0 (L,R) ch, ~126 kbps | RUS

Дата премьеры (мир): 17 февраля 2018
Дата премьеры (РФ): 8 марта 2018, «Экспонента»

Релиз от: ylnian


[+] Media Info
General
Уникальный идентификатор                 : 292861671203600151417398387132568715962 (0xDC531B30CDA95BE35298AA738A1C42BA)
Полное имя                               : Eva.2018.WEB-DL.1080p-ylnian.mkv
Формат                                   : Matroska
Версия формата                           : Version 4 / Version 2
Размер файла                             : 3,51 Гбайт
Продолжительность                        : 1 ч. 37 м.
Общий поток                              : 5138 Кбит/сек
Название фильма                          : Eva.2018.WEB-DL.1080p-ylnian
Дата кодирования                         : UTC 2018-07-09 08:49:52
Программа кодирования                    : mkvmerge v24.0.0 ('Beyond The Pale') 64-bit
Библиотека кодирования                   : libebml v1.3.6 + libmatroska v1.4.9

Видео
Идентификатор                            : 1
Формат                                   : AVC
Формат/Информация                        : Advanced Video Codec
Профиль формата                          : High@L4
Настройки формата                        : CABAC / 5 Ref Frames
Параметр CABAC формата                   : Да
Параметр RefFrames формата               : 5 кадров
Идентификатор кодека                     : V_MPEG4/ISO/AVC
Продолжительность                        : 1 ч. 37 м.
Битрейт                                  : 4626 Кбит/сек
Ширина                                   : 1920 пикселей
Высота                                   : 808 пикселей
Соотношение сторон                       : 2,40:1
Режим частоты кадров                     : Постоянный
Частота кадров                           : 25,000 кадров/сек
Цветовое пространство                    : YUV
Субдискретизация насыщенности            : 4:2:0
Битовая глубина                          : 8 бит
Тип развёртки                            : Прогрессивная
Бит/(Пиксели*Кадры)                      : 0.119
Размер потока                            : 3,16 Гбайт (90%)
Язык                                     : French
Default                                  : Да
Forced                                   : Да
Цветовой диапазон                        : Limited
Основные цвета                           : BT.709
Характеристики трансфера                 : BT.709
Коэффициенты матрицы                     : BT.709

Аудио #1
Идентификатор                            : 2
Формат                                   : AC-3
Формат/Информация                        : Audio Coding 3
Идентификатор кодека                     : A_AC3
Продолжительность                        : 1 ч. 37 м.
Вид битрейта                             : Постоянный
Битрейт                                  : 384 Кбит/сек
Каналы                                   : 6 каналов
Расположение каналов                     : Front: L C R, Side: L R, LFE
Частота                                  : 48,0 КГц
Частота кадров                           : 31,250 кадров/сек (1536 SPF)
Битовая глубина                          : 16 бит
Метод сжатия                             : С потерями
Размер потока                            : 268 Мбайт (7%)
Язык                                     : Russian
Default                                  : Да
Forced                                   : Да

Аудио #2
Идентификатор                            : 3
Формат                                   : AAC
Формат/Информация                        : Advanced Audio Codec
Профиль формата                          : LC
Идентификатор кодека                     : A_AAC-2
Продолжительность                        : 1 ч. 37 м.
Битрейт                                  : 126 Кбит/сек
Каналы                                   : 2 канала
Расположение каналов                     : Front: L R
Частота                                  : 48,0 КГц
Частота кадров                           : 46,875 кадров/сек (1024 SPF)
Метод сжатия                             : С потерями
Задержка видео                           : 171 мс.
Размер потока                            : 88,0 Мбайт (2%)
Язык                                     : Russian
Default                                  : Нет
Forced                                   : Нет



Скриншоты:
[+] Всего файлов в раздаче - 1:
Eva.2018.WEB-DL.1080p-ylnian.mkv3.51 GB

Текущая раздача:
ДатаКомментарии    РазмерПиры
2018-07-09 U Ева / Eva (2018) WEB-DL 1080р | iTunes 3.51 GB ↑ 117 ↓ 67

Показать еще раздачи по запросу itunes:
Сегодня U От семьи не убежишь / La ch'tite famille (2018) BDRip от ExKinoRay | iTunes 1.42 GB ↑ 45 ↓ 22
Сегодня U Конченая / Terminal (2018) BDRip от ExKinoRay | iTunes 1К1.42 GB ↑ 55 ↓ 21
Сегодня U Отладка / Debug (2014) BDRip | iTunes 1.47 GB ↑ 168 ↓ 52
Сегодня U Аферисты поневоле / The Con Is On (2018) WEB-DLRip | iTunes 1К1.46 GB ↑ 481 ↓ 139
Вчера U Тихое место / A Quiet Place (2018) BDRip-AVC от ExKinoRay | iTunes 746.03 MB ↑ 32 ↓ 16
Вчера U Гномы в доме / Gnome Alone (2017) BDRip от ExKinoRay | iTunes 1.42 GB ↑ 38 ↓ 13
Вчера U Правда или действие / Truth or Dare (2018) BDRip от ExKinoRay | Расширенная версия | iTunes 1.42 GB ↑ 46 ↓ 14

Отзывы
Зарегистрируйтесь чтобы добавить комментарий.
Обратная связь
Copyleft ©