↑↓Torrent.by
Поиск
Логин: Регистрация
Пароль: Восстановить пароль
Загрузка...

Женщины мафии / Kobiety mafii / Women of Mafia (2018) BDRip 720p | A

Скачать zhenschiny-mafii-kobiety-women-of-mafia-2018-bdrip-720p-a.torrent
U Магнитная ссылка Размер: 6.75 GB Раздают: 82 Качают: 51 Добавлен: 2018-07-09 17:21:46
Женщины мафии / Kobiety mafii / Women of Mafia (2018) BDRip 720p | A

Название: Женщины мафии
Оригинальное название: Kobiety mafii
Год выхода: 2018
Жанр: Боевик, драма, криминал
Режиссер: Патрик Вега
В ролях: Ольга Болондзь, Александра Поплавска, Катажина Варнке, Julia Wieniawa-Narkiewicz, Януш Хабёр, Sebastian Fabijanski, Filip Guzla, Богуслав Линда, Оляф Любашенко, Томаш Освецинский, ...

О фильме:
После удачно проведённого задержания 20 самых опасных преступников Варшавского района Мокотув, Бела уволена из полиции за самоуправство. Её приглашают на службу в Агентство Внутренней Безопасности. Она должна пройти подготовку с кураторами из ФБР и внедриться в банду международного торговца наркотиками по прозвищу Падрино.…

Страна: Польша
Студия: Showmax, Vega Investments
Продолжительность: 02:18:00
Перевод: Авторский одноголосый (Евгений Гаевский) | по субтитрам О. Левицкой

Внимание! Присутствует ненормативная лексика.

Файл
Кодек: x264
Качество: BDRip 720p
Видео: MPEG-4 AVC, 5296 Kбит/с, 1280x544
Звук: AC3, 2 ch, 192 Кбит/с | Русский
Звук: DTS, 6 ch, 1536 Кбит/с | Польский
Субтитры: Английские


[+] Инфо-файл
Формат                                   : Matroska
Версия формата                           : Version 2
Размер файла                             : 6,75 Гбайт
Продолжительность                        : 2 ч. 18 м.
Общий поток                              : 7000 Кбит/сек
Название фильма                          : Women.of.mafia.2018.720p.BluRay.by.zzZGVvv
Дата кодирования                         : UTC 2018-07-09 04:37:14
Программа кодирования                    : mkvmerge v5.8.0 ('No Sleep / Pillow') built on Sep  2 2012 15:37:04
Библиотека кодирования                   : libebml v1.2.3 + libmatroska v1.3.0
Attachements                             : cover.jpg

Видео
Идентификатор                            : 1
Формат                                   : AVC
Формат/Информация                        : Advanced Video Codec
Профиль формата                          : High@L4.1
Параметр CABAC формата                   : Да
Параметр ReFrames формата                : 8 кадров
Идентификатор кодека                     : V_MPEG4/ISO/AVC
Продолжительность                        : 2 ч. 18 м.
Битрейт                                  : 5296 Кбит/сек
Ширина                                   : 1280 пикселей
Высота                                   : 544 пикселя
Соотношение сторон                       : 2,35:1
Режим частоты кадров                     : Постоянный
Частота кадров                           : 24,000 кадра/сек
Цветовое пространство                    : YUV
Субдискретизация насыщенности            : 4:2:0
Битовая глубина                          : 8 бит
Тип развёртки                            : Прогрессивная
Бит/(Пиксели*Кадры)                      : 0.317
Размер потока                            : 4,97 Гбайт (74%)
Библиотека кодирования                   : x264 core 155 r2901 7d0ff22
Настройки программы                      : cabac=1 / ref=8 / deblock=1:-3:-3 / analyse=0x3:0x133 / me=umh / subme=9 / psy=1 / psy_rd=1.00:0.00 / mixed_ref=1 / me_range=16 / chroma_me=1 / trellis=2 / 8x8dct=1 / cqm=0 / deadzone=21,11 / fast_pskip=0 / chroma_qp_offset=-2 / threads=12 / lookahead_threads=1 / sliced_threads=0 / nr=0 / decimate=1 / interlaced=0 / bluray_compat=0 / constrained_intra=0 / bframes=3 / b_pyramid=2 / b_adapt=2 / b_bias=0 / direct=3 / weightb=1 / open_gop=0 / weightp=2 / keyint=250 / keyint_min=24 / scenecut=40 / intra_refresh=0 / rc_lookahead=60 / rc=2pass / mbtree=1 / bitrate=5296 / ratetol=1.0 / qcomp=0.60 / qpmin=10 / qpmax=69 / qpstep=4 / cplxblur=20.0 / qblur=0.5 / ip_ratio=1.40 / aq=1:0.70
Default                                  : Да
Forced                                   : Нет

Аудио #1
Идентификатор                            : 2
Формат                                   : AC-3
Формат/Информация                        : Audio Coding 3
Расширение режима                        : CM (complete main)
Параметр Endianness формата              : Big
Идентификатор кодека                     : A_AC3
Продолжительность                        : 2 ч. 18 м.
Вид битрейта                             : Постоянный
Битрейт                                  : 192 Кбит/сек
Каналы                                   : 2 канала
Расположение каналов                     : Front: L R
Частота                                  : 48,0 КГц
Метод сжатия                             : С потерями
Размер потока                            : 190 Мбайт (3%)
Заголовок                                : AVO (Евгений Гаевский)
Язык                                     : Russian
Default                                  : Да
Forced                                   : Нет

Аудио #2
Идентификатор                            : 3
Формат                                   : DTS
Формат/Информация                        : Digital Theater Systems
Режим                                    : 16
Параметр Endianness формата              : Big
Идентификатор кодека                     : A_DTS
Продолжительность                        : 2 ч. 18 м.
Вид битрейта                             : Постоянный
Битрейт                                  : 1509 Кбит/сек
Каналы                                   : 6 каналов
Расположение каналов                     : Front: L C R, Side: L R, LFE
Частота                                  : 48,0 КГц
Битовая глубина                          : 24 бит
Метод сжатия                             : С потерями
Размер потока                            : 1,45 Гбайт (22%)
Заголовок                                : Polish DTS 1536 kbps
Язык                                     : Polish
Default                                  : Нет
Forced                                   : Нет

Текст
Идентификатор                            : 4
Формат                                   : UTF-8
Идентификатор кодека                     : S_TEXT/UTF8
Идентификатор кодека/Информация          : UTF-8 Plain Text
Язык                                     : English
Default                                  : Нет
Forced                                   : Нет

Меню
00:00:00.000                             : :
00:08:50.040                             : :
00:19:15.415                             : :
00:28:05.125                             : :
00:39:12.500                             : :
00:48:12.541                             : :
00:58:56.708                             : :
01:08:07.333                             : :
01:18:15.666                             : :
01:28:36.707                             : :
01:44:42.791                             : :
01:59:04.750                             : :




Скриншоты:
[+] Всего файлов в раздаче - 1:
Women.of.mafia.2018.720p.BluRay.by.zzZGVvv.mkv6.75 GB

Текущая раздача:
ДатаКомментарии    РазмерПиры
2018-07-09 U Женщины мафии / Kobiety mafii / Women of Mafia (2018) BDRip 720p | A 6.75 GB ↑ 82 ↓ 51

Показать еще раздачи по запросу женщины:
2018-09-05 U Женщины мафии / Kobiety mafii (2018) HDRip | GreenРай Studio 1.37 GB ↑ 128 ↓ 50
2018-07-16 U Механика женщины / La Mécanique des femmes (2000) DVDRip | L1 1.37 GB ↑ 308 ↓ 80
2018-07-09 U Женщины мафии / Kobiety mafii / Women of Mafia (2018) BDRip-AVC | A 885.84 MB ↑ 74 ↓ 28
2018-07-09 U Женщины мафии / Kobiety mafii / Women of Mafia (2018) BDRip от MegaPeer | A 2.18 GB ↑ 87 ↓ 29
2018-07-09 U Женщины мафии / Kobiety mafii / Women of Mafia (2018) BDRip от MegaPeer | A 1.46 GB ↑ 253 ↓ 94
2018-07-08 U Женщины мафии / Kobiety mafii (2018) BDRip 1080p от Переулка Переводмана | A 9.78 GB ↑ 265 ↓ 329
2018-06-07 U Вкус женщины / Sapore di donna (1990) DVDRip | Sub 1К739.29 MB ↑ 351 ↓ 71

Отзывы
Зарегистрируйтесь чтобы добавить комментарий.
Обратная связь
Copyleft ©