↑↓Torrent.by
Поиск
Логин: Регистрация
Пароль: Восстановить пароль
Загрузка...

Ева / Eva (2018) WEB-DLRip-AVC от OlLanDGroup | iTunes

Скачать eva-2018-web-dlrip-avc-ot-ollandgroup-itunes.torrent
U Магнитная ссылка Размер: 1.46 GB Раздают: 81 Качают: 19 Добавлен: 2018-07-10 09:49:27
Ева / Eva (2018) WEB-DLRip-AVC от OlLanDGroup | iTunes

Ева / Eva
«Игра со страстью – игра без правил»

Год выпуска: 2018
Страна: Франция, Бельгия
Производство: Macassar Productions, EuropaCorp, Arte France Cinéma, NJJ Entertainment, Scope Pictures
Жанр:  Триллер, экранизация

Режиссёр: Бенуа Жако
В ролях: Изабель Юппер, Гаспар Ульель, Джулия Рой, Марк Барбе, Ришар Берри, Дидье Фламан, Эллен Мирес, Натали Шарад

Перевод: Дублированный | iTunes
Субтитры: Нет
Реклама: Отсутствует

Описание: Многообещающий писатель Бертран во время сильной метели оказывается под одной крышей с обольстительной и загадочной Евой. Одержимый этой роковой женщиной, он не подозревает, кто она на самом деле, и в какую опасную игру он вовлечен. Но в погоне за славой, он готов пойти на все, чтобы получить незабываемый и шокирующий финал для, возможно, главного своего романа, героиней которого является Ева.

Качество: WEB-DLRip-AVC
Продолжительность: 01:37:45

Формат: MKV
Видео кодек: MPEG-4 AVC
Аудио кодек: AC3
Видео: 1024x432 (16:9), 25,000 fps, x264 ~1 753 kbps avg, 0.159 bit/pixel
Аудио #1: 48 kHz, AC3 Dolby Digital, 3/2 (L,C,R,l,r) + LFE ch, ~384.00 kbps avg | RUS (iTunes)

Дата премьеры (РФ): 8 марта 2018, «Экспонента»
Дата премьеры (мир): 17 февраля 2018

Релиз: Rip by:


[+] MediaInfo

Общее
Уникальный идентификатор                 : 179347386128977540954064485414220622847 (0x86ED0CD5EE80056DBE7A0F4DD4F86BFF)
Полное имя                               : F:OlLanDGroupEva.2018.WEB-DLRip(AVC).OlLanDGroup.mkv
Формат                                   : Matroska
Версия формата                           : Version 4 / Version 2
Размер файла                             : 1,46 Гбайт
Продолжительность                        : 1 ч. 37 м.
Общий поток                              : 2136 Кбит/сек
Название фильма                          : Eva.2018   #TorpedoUK#
Дата кодирования                         : UTC 2018-07-09 15:54:13
Программа кодирования                    : mkvmerge v8.3.0 ('Over the Horizon') 64bit
Библиотека кодирования                   : libebml v1.3.1 + libmatroska v1.4.2

Видео
Идентификатор                            : 1
Формат                                   : AVC
Формат/Информация                        : Advanced Video Codec
Профиль формата                          : High@L4.1
Параметр CABAC формата                   : Да
Параметр ReFrames формата                : 10 кадров
Идентификатор кодека                     : V_MPEG4/ISO/AVC
Продолжительность                        : 1 ч. 37 м.
Битрейт                                  : 1753 Кбит/сек
Ширина                                   : 1024 пикселя
Высота                                   : 432 пикселя
Соотношение сторон                       : 2,40:1
Режим частоты кадров                     : Постоянный
Частота кадров                           : 25,000 кадров/сек
Цветовое пространство                    : YUV
Субдискретизация насыщенности            : 4:2:0
Битовая глубина                          : 8 бит
Тип развёртки                            : Прогрессивная
Бит/(Пиксели*Кадры)                      : 0.159
Размер потока                            : 1,20 Гбайт (82%)
Библиотека кодирования                   : x264 core 146 r2538 121396c
Настройки программы                      : cabac=1 / ref=10 / deblock=1:-3:-3 / analyse=0x3:0x113 / me=umh / subme=11 / psy=1 / psy_rd=0.97:0.05 / mixed_ref=1 / me_range=48 / chroma_me=1 / trellis=2 / 8x8dct=1 / cqm=0 / deadzone=21,11 / fast_pskip=1 / chroma_qp_offset=-3 / threads=6 / lookahead_threads=1 / sliced_threads=0 / nr=0 / decimate=1 / interlaced=0 / bluray_compat=0 / constrained_intra=0 / bframes=10 / b_pyramid=2 / b_adapt=2 / b_bias=0 / direct=3 / weightb=1 / open_gop=0 / weightp=2 / keyint=250 / keyint_min=25 / scenecut=40 / intra_refresh=0 / rc_lookahead=40 / rc=2pass / mbtree=1 / bitrate=1753 / ratetol=1.0 / qcomp=0.60 / qpmin=0 / qpmax=69 / qpstep=4 / cplxblur=20.0 / qblur=0.5 / vbv_maxrate=50000 / vbv_bufsize=62500 / nal_hrd=none / filler=0 / ip_ratio=1.40 / aq=1:1.00
Default                                  : Да
Forced                                   : Нет

Аудио
Идентификатор                            : 2
Формат                                   : AC-3
Формат/Информация                        : Audio Coding 3
Расширение режима                        : CM (complete main)
Параметр Endianness формата              : Big
Идентификатор кодека                     : A_AC3
Продолжительность                        : 1 ч. 37 м.
Вид битрейта                             : Постоянный
Битрейт                                  : 384 Кбит/сек
Каналы                                   : 6 каналов
Расположение каналов                     : Front: L C R, Side: L R, LFE
Частота                                  : 48,0 КГц
Частота кадров                           : 31,250 кадров/сек (1536 spf)
Битовая глубина                          : 16 бит
Метод сжатия                             : С потерями
Размер потока                            : 268 Мбайт (18%)
Заголовок                                : iTunes
Язык                                     : Russian
Default                                  : Да
Forced                                   : Нет



Скриншоты:
[+] Всего файлов в раздаче - 1:
Eva.2018.WEB-DLRip(AVC).OlLanDGroup.mkv1.46 GB

Текущая раздача:
ДатаКомментарии    РазмерПиры
2018-07-10 U Ева / Eva (2018) WEB-DLRip-AVC от OlLanDGroup | iTunes 1.46 GB ↑ 81 ↓ 19

Показать еще раздачи по запросу dlrip:
Сегодня U Следующее поколение / Next Gen (2018) WEB-DLRip-AVC от ExKinoRay | D 1.89 GB ↑ 46 ↓ 6
Сегодня U Как женить холостяка / Destination Wedding (2018) WEB-DLRip-AVC | HDrezka Studio 743.61 MB ↑ 64 ↓ 32
Сегодня U Акварели [01-04 из 16] (2018) WEB-DLRip-AVC от Files-x 2.62 GB ↑ 42 ↓ 32
Сегодня U Ищейка [03х01-10 из 16] (2018) WEB-DLRip от Files-x 6.22 GB ↑ 38 ↓ 73
Сегодня U Акварели [01-04 из 16] (2018) WEB-DLRip от Files-x 2.48 GB ↑ 69 ↓ 65
Сегодня U Следующее поколение / Next Gen (2018) WEB-DLRip от MegaPeer | D 1.46 GB ↑ 81 ↓ 18
Вчера U НЛО / UFO (2018) WEB-DLRip от MegaPeer | iTunes 1.45 GB ↑ 227 ↓ 118

Отзывы
Зарегистрируйтесь чтобы добавить комментарий.
Обратная связь
Copyleft ©