↑↓Torrent.by
Поиск
Логин: Регистрация
Пароль: Восстановить пароль
Загрузка...

Кодекс Готти / Gotti (2018) WEB-DLRip-AVC от ivanes20031987 | HDRezka Studio

Скачать kodeks-gotti-2018-web-dlrip-avc-ot-ivanes20031987-hdrezka-studio.torrent
U Магнитная ссылка Размер: 1.38 GB Раздают: 75 Качают: 20 Добавлен: 2018-07-10 09:51:46
Кодекс Готти / Gotti (2018) WEB-DLRip-AVC от ivanes20031987 | HDRezka Studio

Название: Кодекс Готти
Оригинальное название: Gotti
Год выхода: 2018
Жанр: драма, криминал, биография
Режиссер: Кевин Коннолли
В ролях: Джон Траволта, Келли Престон, Стейси Кич, Спенсер Лофранко, Прюитт Тейлор Винс, Эшли Кусато, Лидия Халл, Уильям ДеМео, Крис Малки, Лео Росси

О фильме:
Джон Готти начинал свою криминальную карьеру, выполняя самые простые поручения. Позже он по праву стал ключевым человеком в криминальном мире. Его семья является самой влиятельной и богатой в Нью-Йорке, финансовое благополучие и власть ставится выше моральных аспектов. Однажды дело Готти должно быть передано наследнику, однако неожиданно отец сталкивается с отказом сына иметь причастность к миру криминала. Но как поступит Готти-младший, когда над его семьёй нависнет угроза?

Страна: Канада, США
Продолжительность: 01:49:34
Перевод: Профессиональный (многоголосый закадровый) HDRezka Studio

Файл
Кодек: H.264
Качество: WEB-DLRip-AVC / WEB-DL 1080p
Видео: MPEG-4 AVC, 912x380 (2.40:1), 23.976 fps, ~1576 kbps avg, 0.190 bit/pixel
Звук: 48 kHz, AC3 Dolby Digital, 2/0 (L,R) ch, ~192 kbps avg
Субтитры: Нет

Семпл


[+] MediaInfo


Complete name               : D:РаздачаКодекс Готти (2018) WEB-DLRip-AVC_ivanes20031987.mkv
Format                      : Matroska
Format version              : Version 2
File size                   : 1.38 GiB
Duration                    : 1 h 49 min
Overall bit rate            : 1 804 kb/s
Movie name                  : Кодекс Готти (2018) WEB-DLRip-AVC_ivanes20031987
Encoded date                : UTC 2018-07-09 19:15:10
Writing application         : mkvmerge v4.4.0 ('Die Wiederkehr') сборка от Jan  3 2011 21:40:45
Writing library             : libebml v1.0.0 + libmatroska v1.0.0
Cover                       : Yes
Attachments                 : cover.jpg

Video
ID                          : 1
Format                      : AVC
Format/Info                 : Advanced Video Codec
Format profile              : High@L4.1
Format settings, CABAC      : Yes
Format settings, RefFrames  : 14 frames
Codec ID                    : V_MPEG4/ISO/AVC
Duration                    : 1 h 49 min
Bit rate                    : 1 576 kb/s
Width                       : 912 pixels
Height                      : 380 pixels
Display aspect ratio        : 2.40:1
Frame rate mode             : Constant
Frame rate                  : 23.976 (24000/1001) FPS
Color space                 : YUV
Chroma subsampling          : 4:2:0
Bit depth                   : 8 bits
Scan type                   : Progressive
Bits/(Pixel*Frame)          : 0.190
Stream size                 : 1.21 GiB (87%)
Title                       : Rip by ivanes20031987
Writing library             : x264 core 155 r2901 7d0ff22
Encoding settings           : cabac=1 / ref=14 / deblock=1:-3:-3 / analyse=0x3:0x113 / me=umh / subme=10 / psy=1 / psy_rd=1.00:0.00 / mixed_ref=1 / me_range=32 / chroma_me=1 / trellis=2 / 8x8dct=1 / cqm=0 / deadzone=21,11 / fast_pskip=0 / chroma_qp_offset=-2 / threads=12 / lookahead_threads=2 / sliced_threads=0 / nr=0 / decimate=0 / interlaced=0 / bluray_compat=0 / constrained_intra=0 / bframes=14 / b_pyramid=2 / b_adapt=2 / b_bias=0 / direct=1 / weightb=1 / open_gop=0 / weightp=2 / keyint=240 / keyint_min=23 / scenecut=40 / intra_refresh=0 / rc_lookahead=60 / rc=crf / mbtree=0 / crf=16.7 / qcomp=0.60 / qpmin=0 / qpmax=69 / qpstep=4 / vbv_maxrate=50000 / vbv_bufsize=62500 / crf_max=0.0 / nal_hrd=none / filler=0 / ip_ratio=1.40 / pb_ratio=1.30 / aq=1:1.00
Default                     : Yes
Forced                      : No

Audio
ID                          : 2
Format                      : AC-3
Format/Info                 : Audio Coding 3
Format settings, Endianness : Big
Codec ID                    : A_AC3
Duration                    : 1 h 49 min
Bit rate mode               : Constant
Bit rate                    : 192 kb/s
Channel(s)                  : 2 channels
Channel positions           : Front: L R
Sampling rate               : 48.0 kHz
Frame rate                  : 31.250 FPS (1536 SPF)
Bit depth                   : 16 bits
Compression mode            : Lossy
Stream size                 : 150 MiB (11%)
Title                       : HDRezka Studio
Language                    : Russian
Service kind                : Complete Main
Default                     : Yes
Forced                      : No




Скриншоты:
[+] Всего файлов в раздаче - 1:
Кодекс Готти (2018) WEB-DLRip-AVC_ivanes20031987.mkv1.38 GB

Текущая раздача:
ДатаКомментарии    РазмерПиры
2018-07-10 U Кодекс Готти / Gotti (2018) WEB-DLRip-AVC от ivanes20031987 | HDRezka Studio 1.38 GB ↑ 75 ↓ 20

Показать еще раздачи по запросу кодекс:
2018-09-02 U Кодекс Готти / Gotti (2018) BDRemux 1080p | D, Р 16.28 GB ↑ 35 ↓ 17
2018-09-01 U Кодекс Готти / Gotti (2018) BDRip-AVC от ivanes20031987 | iTunes 744.90 MB ↑ 53 ↓ 8
2018-08-31 U Кодекс Готти / Gotti (2018) BDRip от ExKinoRay | iTunes 1.41 GB ↑ 109 ↓ 36
2018-08-31 U Кодекс Готти / Gotti (2018) BDRip-AVC от OlLanDGroup | iTunes 1.86 GB ↑ 34 ↓ 11
2018-08-31 U Кодекс Готти / Gotti (2018) BDRip-AVC от Dalemake | D | iTunes 2.71 GB ↑ 48 ↓ 6
2018-08-31 U Кодекс Готти / Gotti (2018) BDRip 720р от Атлас31 | D | iTunes 4.65 GB ↑ 137 ↓ 65
2018-08-31 U Кодекс Готти / Gotti (2018) BDRip от MegaPeer | iTunes 1.41 GB ↑ 174 ↓ 56

Отзывы
Зарегистрируйтесь чтобы добавить комментарий.
Обратная связь
Copyleft ©