↑↓Torrent.by
Поиск
Логин: Регистрация
Пароль: Восстановить пароль
Загрузка...

Кодекс Готти / Gotti (2018) WEB-DLRip-AVC от ExKinoRay | HDRezka Studio

Скачать kodeks-gotti-2018-web-dlrip-avc-ot-exkinoray-hdrezka-studio.torrent
U Магнитная ссылка Размер: 1.68 GB Раздают: 56 Качают: 37 Добавлен: 2018-07-10 09:51:55
Кодекс Готти / Gotti (2018) WEB-DLRip-AVC от ExKinoRay | HDRezka Studio

Информация о фильме
Название: Кодекс Готти
Оригинальное название: Gotti
Год выпуска: 2018
Жанр:  Драма, криминал, биография
Режиссер: Кевин Коннолли
В ролях: Джон Траволта, Келли Престон, Стейси Кич, Спенсер Лофранко, Прюитт Тейлор Винс, Эшли Кусато, Лидия Халл, Уильям ДеМео, Крис Малки, Лео Росси

О фильме:
Джон Готти начинал свою криминальную карьеру, выполняя самые простые поручения. Позже он по праву стал ключевым человеком в криминальном мире. Его семья является самой влиятельной и богатой в Нью-Йорке, финансовое благополучие и власть ставится выше моральных аспектов. Однажды дело Готти должно быть передано наследнику, однако неожиданно отец сталкивается с отказом сына иметь причастность к миру криминала. Но как поступит Готти-младший, когда над его семьёй нависнет угроза?

Страна: Канада, США
Студия: Emmett/Furla/Oasis Films, Fiore Films, Highland Film Group
Продолжительность: 01:49:34
Перевод: Профессиональный (многоголосый, закадровый) | HDrezka Studio
Субтитры: Английские, французские

Без какой-либо рекламы.

Кодек: H.264
Качество: WEB-DLRip-AVC
Видео: MPEG-4 AVC, 1024x426 (2.40:1), 23.976 fps, ~1558 kbps avg, 0.149 bit/pixel
Звук 1: 48 kHz, AC3 Dolby Digital, 2/0 ch, ~192 kbps avg
Звук 2: 48 kHz, AC3 Dolby Digital, 5/1 ch, ~448 kbps avg

Релиз:

Автор релиза:


[+] MI
General
Unique ID                                : 251375958544690971837676603924855266084 (0xBD1D3FA35575F8249377BB6F77761B24)
Complete name                            : D:Gotti.2018.MVO.AMZN.WEB-DLRip.AVC.ExKinoRay.mkv
Format                                   : Matroska
Format version                           : Version 2
File size                                : 1.68 GiB
Duration                                 : 1 h 49 min
Overall bit rate                         : 2 197 kb/s
Movie name                               : Gotti 2018 from ExKinoRay
Encoded date                             : UTC 2018-07-10 03:15:41
Writing application                      : mkvmerge v5.6.0 ('Kenya Kane') built on May 27 2012 16:44:04
Writing library                          : libebml v1.2.3 + libmatroska v1.3.0

Video
ID                                       : 1
Format                                   : AVC
Format/Info                              : Advanced Video Codec
Format profile                           : High@L4.1
Format settings, CABAC                   : Yes
Format settings, ReFrames                : 11 frames
Codec ID                                 : V_MPEG4/ISO/AVC
Duration                                 : 1 h 49 min
Bit rate                                 : 1 558 kb/s
Width                                    : 1 024 pixels
Height                                   : 426 pixels
Display aspect ratio                     : 2.40:1
Frame rate mode                          : Constant
Frame rate                               : 23.976 (24000/1001) FPS
Original frame rate                      : 23.976 (23976/1000) FPS
Color space                              : YUV
Chroma subsampling                       : 4:2:0
Bit depth                                : 8 bits
Scan type                                : Progressive
Bits/(Pixel*Frame)                       : 0.149
Stream size                              : 1.16 GiB (69%)
Title                                    : Enigma
Writing library                          : x264 core 152 r2851 ba24899
Encoding settings                        : cabac=1 / ref=11 / deblock=1:-2:-2 / analyse=0x3:0x113 / me=umh / subme=10 / psy=1 / psy_rd=1.00:0.00 / mixed_ref=1 / me_range=32 / chroma_me=1 / trellis=2 / 8x8dct=1 / cqm=0 / deadzone=21,11 / fast_pskip=0 / chroma_qp_offset=-2 / threads=12 / lookahead_threads=3 / sliced_threads=0 / nr=0 / decimate=0 / interlaced=0 / bluray_compat=0 / constrained_intra=0 / bframes=12 / b_pyramid=2 / b_adapt=2 / b_bias=0 / direct=3 / weightb=1 / open_gop=0 / weightp=2 / keyint=240 / keyint_min=23 / scenecut=40 / intra_refresh=0 / rc_lookahead=40 / rc=2pass / mbtree=0 / bitrate=1558 / ratetol=1.0 / qcomp=0.60 / qpmin=0 / qpmax=51 / qpstep=4 / cplxblur=20.0 / qblur=0.5 / vbv_maxrate=50000 / vbv_bufsize=62500 / nal_hrd=none / filler=0 / ip_ratio=1.35 / pb_ratio=1.20 / aq=1:1.00
Default                                  : Yes
Forced                                   : No
Color range                              : Limited
Color primaries                          : BT.709
Transfer characteristics                 : BT.709
Matrix coefficients                      : BT.709

Audio #1
ID                                       : 2
Format                                   : AC-3
Format/Info                              : Audio Coding 3
Mode extension                           : CM (complete main)
Format settings, Endianness              : Big
Codec ID                                 : A_AC3
Duration                                 : 1 h 49 min
Bit rate mode                            : Constant
Bit rate                                 : 192 kb/s
Channel(s)                               : 2 channels
Channel positions                        : Front: L R
Sampling rate                            : 48.0 kHz
Frame rate                               : 31.250 FPS (1536 spf)
Compression mode                         : Lossy
Stream size                              : 150 MiB (9%)
Title                                    : MVO
Language                                 : Russian
Default                                  : Yes
Forced                                   : No

Audio #2
ID                                       : 3
Format                                   : AC-3
Format/Info                              : Audio Coding 3
Mode extension                           : CM (complete main)
Format settings, Endianness              : Big
Codec ID                                 : A_AC3
Duration                                 : 1 h 49 min
Bit rate mode                            : Constant
Bit rate                                 : 448 kb/s
Channel(s)                               : 6 channels
Channel positions                        : Front: L C R, Side: L R, LFE
Sampling rate                            : 48.0 kHz
Frame rate                               : 31.250 FPS (1536 spf)
Compression mode                         : Lossy
Stream size                              : 351 MiB (20%)
Language                                 : English
Default                                  : No
Forced                                   : No

Text #1
ID                                       : 4
Format                                   : UTF-8
Codec ID                                 : S_TEXT/UTF8
Codec ID/Info                            : UTF-8 Plain Text
Title                                    : Full
Language                                 : English
Default                                  : No
Forced                                   : No

Text #2
ID                                       : 5
Format                                   : UTF-8
Codec ID                                 : S_TEXT/UTF8
Codec ID/Info                            : UTF-8 Plain Text
Title                                    : Full
Language                                 : French
Default                                  : No
Forced                                   : No

Text #3
ID                                       : 6
Format                                   : UTF-8
Codec ID                                 : S_TEXT/UTF8
Codec ID/Info                            : UTF-8 Plain Text
Title                                    : SDH
Language                                 : French
Default                                  : No
Forced                                   : No




Скриншоты:
[+] Всего файлов в раздаче - 1:
Gotti.2018.MVO.AMZN.WEB-DLRip.AVC.ExKinoRay.mkv1.68 GB

Текущая раздача:
ДатаКомментарии    РазмерПиры
2018-07-10 U Кодекс Готти / Gotti (2018) WEB-DLRip-AVC от ExKinoRay | HDRezka Studio 1.68 GB ↑ 56 ↓ 37

Показать еще раздачи по запросу кодекс:
2018-07-10 U Кодекс Готти / Gotti (2018) WEB-DLRip | Android | HDrezka Studio 819.17 MB ↑ 69 ↓ 17
2018-07-10 U Кодекс Готти / Gotti (2018) WEB-DLRip-AVC от ivanes20031987 | HDRezka Studio 1.38 GB ↑ 74 ↓ 19
2018-07-10 U Кодекс Готти / Gotti (2018) WEB-DLRip от MegaPeer | HDRezka Studio 1.46 GB ↑ 395 ↓ 137
2018-07-10 U Кодекс Готти / Gotti (2018) WEB-DL 1080p от ExKinoRay | HDRezka Studio 5.13 GB ↑ 440 ↓ 158
2018-07-01 U Кодекс вора / The Code (2008) HDRip-AVC | D 744.41 MB ↑ 91 ↓ 14
2018-05-27 U Кодекс бесчестия (1993) DVDRip-AVC от KORSAR 2.33 GB ↑ 48 ↓ 5
2018-02-21 U Кодекс чести / Code of Honor (2016) HDRip | L 2.18 GB ↑ 42 ↓ 16

Отзывы
Зарегистрируйтесь чтобы добавить комментарий.
Обратная связь
Copyleft ©