↑↓Torrent.by
Поиск
Логин: Регистрация
Пароль: Восстановить пароль
Загрузка...

Траффик / Traffik (2018) HDRip 1080p | GreenРай Studio

Скачать traffik-2018-hdrip-1080p-greenray-studio.torrent
U Магнитная ссылка Размер: 6.65 GB Раздают: 102 Качают: 137 Добавлен: 2018-07-10 13:20:58
Траффик / Traffik (2018) HDRip 1080p | GreenРай Studio

Год выхода: 2018
Наименование: Траффик
Оригинальное наименование: Traffik
Страна: США
Жанр:  триллер
Режиссер постановщик: Деон Тейлор
В главных ролях: Омар Эппс, Пола Пэттон, Мисси Пайл, Уильям Фихтнер, Доун Оливери, Роселин Санчес, Люк Госс, Лас Алонсо, Стэйси Арвен Рааб, Клод Дюамель

О фильме: Молодая пара Бреа и Джон отправляются в романтическое путешествие в горы. Вдали от цивилизации они подвергаются нападению банды торговцев людьми и вступают с ними в смертельное противостояние.

Файл
Качество: HDRip 1080p
Видео данные: MKV, 1920x800 (2.40:1), 23.976 fps, 9595 Кбит/с
Аудио данные: AAC, 2 ch, 192 Кбит/с
Перевод: Любительский многоголосый (GreenРай Studio)
Продолжительность: 01:37:19

Внимание, имеется  видео и аудио реклама от спонсора показа

Релиз:


[+] Медиаинфо
General
Unique ID                                : 55785171425840719895936121829034245664 (0x29F7D54D432A953BD1032512A80F3E20)
Complete name                            : E:ГРИНРАЙTraffik.2018.P.BDRip.1080p.mkv
Format                                   : Matroska
Format version                           : Version 4 / Version 2
File size                                : 6.65 GiB
Duration                                 : 1 h 37 min
Overall bit rate                         : 9 787 kb/s
Encoded date                             : UTC 2018-07-09 18:09:38
Writing application                      : mkvmerge v21.0.0 ('Tardigrades Will Inherit The Earth') 64-bit
Writing library                          : libebml v1.3.5 + libmatroska v1.4.8

Video
ID                                       : 1
Format                                   : AVC
Format/Info                              : Advanced Video Codec
Format profile                           : High@L4.1
Format settings                          : CABAC / 1 Ref Frames
Format settings, CABAC                   : Yes
Format settings, RefFrames               : 1 frame
Format settings, GOP                     : M=1, N=30
Codec ID                                 : V_MPEG4/ISO/AVC
Duration                                 : 1 h 37 min
Bit rate                                 : 9 595 kb/s
Width                                    : 1 920 pixels
Height                                   : 800 pixels
Display aspect ratio                     : 2.40:1
Frame rate mode                          : Constant
Frame rate                               : 23.976 (24000/1001) FPS
Color space                              : YUV
Chroma subsampling                       : 4:2:0
Bit depth                                : 8 bits
Scan type                                : Progressive
Bits/(Pixel*Frame)                       : 0.261
Stream size                              : 6.52 GiB (98%)
Language                                 : English
Default                                  : Yes
Forced                                   : No

Audio
ID                                       : 2
Format                                   : AAC
Format/Info                              : Advanced Audio Codec
Format profile                           : LC
Codec ID                                 : A_AAC-2
Duration                                 : 1 h 37 min
Bit rate                                 : 192 kb/s
Channel(s)                               : 2 channels
Channel positions                        : Front: L R
Sampling rate                            : 48.0 kHz
Frame rate                               : 46.875 FPS (1024 SPF)
Compression mode                         : Lossy
Stream size                              : 132 MiB (2%)
Language                                 : English
Default                                  : Yes
Forced                                   : No



Скриншоты:
[+] Всего файлов в раздаче - 1:
Traffik.2018.P.BDRip.1080p.mkv6.65 GB

Текущая раздача:
ДатаКомментарии    РазмерПиры
2018-07-10 U Траффик / Traffik (2018) HDRip 1080p | GreenРай Studio 6.65 GB ↑ 102 ↓ 137

Похожие раздачи по запросу - траффик:
2018-07-10 U Траффик / Traffik (2018) HDRip | GreenРай Studio 1.37 GB ↑ 65 ↓ 55
2018-07-08 U Траффик / Traffik (2018) TS | GreenРай Studio 1.37 GB ↑ 104 ↓ 34
2016-08-24 U Сибирский траффик (2015) WEB-DLRip-AVC от ExKinoRay 1.22 GB ↑ 456 ↓ 79
2016-08-24 U Сибирский траффик (2015) WEB-DLRip 1.37 GB ↑ 2475 ↓ 720
2013-11-19 U Траффик / Traffic (2000) HDRip от Scarabey | D 1.45 GB ↑ 34 ↓ 43

Отзывы
Зарегистрируйтесь чтобы добавить комментарий.
Обратная связь
Copyleft ©