↑↓Torrent.by
Поиск
Логин: Регистрация
Пароль: Восстановить пароль
Загрузка...

Большая легенда / Big Legend (2018) WEBRip | L2

Скачать bolshaya-legenda-big-legend-2018-webrip-l2.torrent
U Магнитная ссылка Размер: 1.31 GB Раздают: 135 Качают: 63 Добавлен: 2018-07-10 18:59:11
Большая легенда / Big Legend (2018) WEBRip | L2

Название: Большая легенда
Оригинальное название: Big Legend
Год выхода: 2018
Жанр: Боевик, триллер
Режиссер: Джастин Ли
В ролях: Кевин Макли, Тодд Робинсон, Аманда Уайсс, Лето Спиро, Эшли Платц, Эдриенн Барбо, Лэнс Хенриксен и другие
О фильме:
Тайлер отправляется в тихоокеанские северо-западные густые леса после того, как его невеста неожиданно пропала, отправившись туда на экспедицию. Там он встречает охотника, который решает помочь парню. Идя по стопам учёных, на которых они вышли, герои никак не ожидают, что легенды о Бигфуте окажутся правдивыми.

Страна: США, Papa Octopus Productions, Fresh Cats Productions
Продолжительность: 01:29:45
Перевод: Любительский (двухголосый закадровый) | HiWay Grope

Файл
Кодек: XviD
Качество: WEBRip
Видео: 720x304, 23.976 fps, ~1695 kbps, 0.32 bit/pixel
Звук:
Аудио rus: AC3, 48 kHz, 6 ch, 384 Kbps
Субтитры: отсутствуют

Реклама: присутствует

Семпл

Релиз от: HiWay Grope


[+] MediaInfo:

General
Complete name               : D:Big.Legend.2018.WEBRip.HiWayGropeBig.Legend.2018.WEBRip.HiWayGrope.avi
Format                      : AVI
Format/Info                 : Audio Video Interleave
File size                   : 1.31 GiB
Duration                    : 1 h 29 min
Overall bit rate            : 2 089 kb/s
Writing application         : VirtualDubMod 1.5.10.3 (build 2550/release)
Writing library             : VirtualDubMod build 2550/release

Video
ID                          : 0
Format                      : MPEG-4 Visual
Format profile              : Advanced Simple@L5
Format settings             : BVOP1
Format settings, BVOP       : 1
Format settings, QPel       : No
Format settings, GMC        : No warppoints
Format settings, Matrix     : Default (MPEG)
Codec ID                    : XVID
Codec ID/Hint               : XviD
Duration                    : 1 h 29 min
Bit rate                    : 1 696 kb/s
Width                       : 720 pixels
Height                      : 304 pixels
Display aspect ratio        : 2.35:1
Frame rate                  : 23.976 (24000/1001) FPS
Original frame rate         : 23.976 (23976/1000) FPS
Color space                 : YUV
Chroma subsampling          : 4:2:0
Bit depth                   : 8 bits
Scan type                   : Progressive
Compression mode            : Lossy
Bits/(Pixel*Frame)          : 0.323
Stream size                 : 1.06 GiB (81%)
Writing library             : XviD 73

Audio
ID                          : 1
Format                      : AC-3
Format/Info                 : Audio Coding 3
Codec ID                    : 2000
Duration                    : 1 h 29 min
Bit rate mode               : Constant
Bit rate                    : 384 kb/s
Channel(s)                  : 6 channels
Channel positions           : Front: L C R, Side: L R, LFE
Sampling rate               : 48.0 kHz
Frame rate                  : 31.250 FPS (1536 SPF)
Bit depth                   : 16 bits
Compression mode            : Lossy
Stream size                 : 247 MiB (18%)
Alignment                   : Split accross interleaves
Interleave, duration        : 42  ms (1.00 video frame)
Interleave, preload duratio : 500  ms
Service kind                : Complete Main




Скриншоты:
[+] Всего файлов в раздаче - 1:
Big.Legend.2018.WEBRip.HiWayGrope.avi1.31 GB

Текущая раздача:
ДатаКомментарии    РазмерПиры
2018-07-10 U Большая легенда / Big Legend (2018) WEBRip | L2 1.31 GB ↑ 135 ↓ 63

Показать еще раздачи по запросу большая:
2018-07-15 U Большая легенда / Big Legend (2018) WEB-DLRip-AVC от OlLanDGroup | HDRezka Studio 1.46 GB ↑ 79 ↓ 52
2018-07-15 U Серия книг - «Моя большая книга» [100 томов] (2018) FB2 1.03 GB ↑ 40 ↓ 30
2018-07-11 U Большая легенда / Big Legend (2018) WEB-DL 1080p | L2 6.08 GB ↑ 28 ↓ 15
2018-07-10 U Большая легенда / Big Legend (2018) WEBRip 720p | L2 2.12 GB ↑ 52 ↓ 29
2018-07-09 U Большая игра / Molly's Game (2017) HDRip от Scarabey | Лицензия 1.45 GB ↑ 29 ↓ 15
2018-07-07 U Серия книг - «Моя большая книга» [90 томов] (2018) FB2 1,000.25 MB ↑ 105 ↓ 34
2018-07-06 U Большая легенда / Big Legend (2018) WEB-DL 1080p | L1 6.36 GB ↑ 56 ↓ 28

Отзывы
Зарегистрируйтесь чтобы добавить комментарий.
Обратная связь
Copyleft ©