↑↓Torrent.by
Поиск
Логин: Регистрация
Пароль: Восстановить пароль
Загрузка...

Смешарики. Дежавю (2018) BDRip | Лицензия

Скачать smeshariki-dezhavyu-2018-bdrip-licenziya.torrent
U Магнитная ссылка Размер: 1.43 GB Раздают: 210 Качают: 61 Добавлен: 2018-07-10 18:59:40
Смешарики. Дежавю (2018) BDRip | Лицензия

Название: Смешарики. Дежавю
Год выхода: 2018
Жанр: Мультфильм, комедия, приключения, семейный
Страна: Россия
Перевод: Не требуется
Продолжительность: 01:25:03
Режиссер: Денис Чернов
Роли дублировали: Павел Деревянко, Антон Виноградов, Сергей Мардарь, Михаил Черняк, Владимир Постников, Светлана Письмиченко, Вадим Бочанов, Михаил Хрусталёв и др.

О фильме: Крош решает устроить незабываемый день рождения Копатыча — он обращается в агентство «Дежавю», которое обещает своим клиентам удивительные путешествия во времени. Но из-за несоблюдения условий договора всех смешариков раскидывает во времени, а Крошу придется собирать друзей по разным эпохам в компании своего второго «Я» — повзрослевшего и ворчливого Шорка, появившегося из-за временного парадокса.

Файл
Формат: AVI
Качество: BDRip
Видео: Xvid, 720x304, ~1946 kbps, 24,000 fps
Звук: русский, AC3 5.1, 48 kHz, 448 kbps | Лицензия
Субтитры: нет
[+] MI
General
Полное имя                               : F:TorrentSmeshariki2018BDRipAVI.avi
Формат                                   : AVI
Формат/Информация                        : Audio Video Interleave
Размер файла                             : 1.43 GiB
Продолжительность                        : 1 h 25 min
Общий поток                              : 2 403 kb/s
Библиотека кодирования                   : VirtualDub build 35491/release

Video
Идентификатор                            : 0
Формат                                   : MPEG-4 Visual
Профиль формата                          : Advanced Simple@L5
Настройки формата                        : BVOP2 / Custom Matrix
Параметр BVOP формата                    : 2
Параметр QPel формата                    : No
Параметр GMC формата                     : No warppoints
Параметр матрицы формата                 : Custom
Идентификатор кодека                     : XVID
Идентификатор кодека/Подсказка           : XviD
Продолжительность                        : 1 h 25 min
Битрейт                                  : 1 946 kb/s
Ширина                                   : 720 pixels
Высота                                   : 304 pixels
Соотношение сторон                       : 2.35:1
Частота кадров                           : 24.000 FPS
Цветовое пространство                    : YUV
Субдискретизация насыщенности            : 4:2:0
Битовая глубина                          : 8 bits
Тип развёртки                            : Progressive
Метод сжатия                             : Lossy
Бит/(Пиксели*Кадры)                      : 0.370
Размер потока                            : 1.16 GiB (81%)
Библиотека кодирования                   : XviD 67

Audio
Идентификатор                            : 1
Формат                                   : AC-3
Формат/Информация                        : Audio Coding 3
Идентификатор кодека                     : 2000
Продолжительность                        : 1 h 25 min
Вид битрейта                             : Constant
Битрейт                                  : 448 kb/s
Каналы                                   : 6 channels
Расположение каналов                     : Front: L C R, Side: L R, LFE
Частота                                  : 48.0 kHz
Частота кадров                           : 31.250 FPS (1536 SPF)
Битовая глубина                          : 16 bits
Метод сжатия                             : Lossy
Размер потока                            : 273 MiB (19%)
Выравнивание                             : Aligned on interleaves
Продолжительность промежутка             : 42  ms (1.00 video frame)
Время предзагрузки промежутка            : 512  ms




Скриншоты:
[+] Всего файлов в раздаче - 1:
Smeshariki2018BDRipAVI.avi1.43 GB

Показать еще раздачи по запросу смешарики:
2018-07-26 U Смешарики. Дежавю (2018) HDRip от Scarabey | Лицензия 1.44 GB ↑ 199 ↓ 29
2018-07-23 U Смешарики. Дежавю (2018) BDRip от GeneralFilm | Лицензия 744.53 MB ↑ 46 ↓ 15
2018-07-22 U Смешарики. Дежавю (2018) BDRip от GeneralFilm | Лицензия 1.45 GB ↑ 83 ↓ 17
2018-07-20 U Смешарики. Дежавю (2018) BDRip от ExKinoRay | Лицензия 1.46 GB ↑ 158 ↓ 18
2018-07-20 U Смешарики. Дежавю (2018) BDRip-AVC от ExKinoRay | Лицензия 1.55 GB ↑ 32 ↓ 5
2018-07-15 U Смешарики. Дежавю (2018) HDRip от ExKinoRay | Лицензия 744.67 MB ↑ 322 ↓ 12
2018-07-10 U Смешарики. Дежавю (2018) BDRip-AVC | Лицензия 1.69 GB ↑ 261 ↓ 35

Отзывы
Зарегистрируйтесь чтобы добавить комментарий.
Обратная связь
Copyleft ©