↑↓Torrent.by
Поиск
Логин: Регистрация
Пароль: Восстановить пароль
Загрузка...

Большая легенда / Big Legend (2018) WEBRip 720p | L2

Скачать bolshaya-legenda-big-legend-2018-webrip-720p-l2.torrent
U Магнитная ссылка Размер: 2.12 GB Раздают: 57 Качают: 30 Добавлен: 2018-07-10 19:31:28
Большая легенда / Big Legend (2018) WEBRip 720p | L2

Название: Большая легенда
Оригинальное название: Big Legend
Год выхода: 2018
Жанр: Боевик, триллер
Режиссер: Джастин Ли
В ролях: Кевин Макли, Тодд Робинсон, Аманда Уайсс, Лето Спиро, Эшли Платц, Эдриенн Барбо, Лэнс Хенриксен и другие
О фильме:
Тайлер отправляется в тихоокеанские северо-западные густые леса после того, как его невеста неожиданно пропала, отправившись туда на экспедицию. Там он встречает охотника, который решает помочь парню. Идя по стопам учёных, на которых они вышли, герои никак не ожидают, что легенды о Бигфуте окажутся правдивыми.

Страна: США, Papa Octopus Productions, Fresh Cats Productions
Продолжительность: 01:29:45
Перевод: Любительский (двухголосый закадровый) | HiWay Grope

Файл
Кодек: MPEG-4 AVC/x.264
Качество: WEBRip 720p
Видео: 1280x544, 23.976 fps, ~2924 kbps, 0.175 bit/pixel
Звук:
Аудио rus: AC3, 48 kHz, 6 ch, 384 Kbps
Субтитры: отсутствуют

Реклама: присутствует

Семпл

Релиз от: HiWay Grope


[+] MediaInfo:

General
Unique ID                   : 51617126922362669115257385337156536730 (0x26D518D7808B542CE68D735B6BA8099A)
Complete name               : D:Big.Legend.2018.720p.WEBRip.HiWayGropeBig.Legend.2018.720p.WEBRip.HiWayGrope.mkv
Format                      : Matroska
Format version              : Version 4 / Version 2
File size                   : 2.12 GiB
Duration                    : 1 h 29 min
Overall bit rate            : 3 375 kb/s
Encoded date                : UTC 2018-07-10 09:38:40
Writing application         : mkvmerge v21.0.0 ('Tardigrades Will Inherit The Earth') 64-bit
Writing library             : libebml v1.3.5 + libmatroska v1.4.8

Video
ID                          : 1
Format                      : AVC
Format/Info                 : Advanced Video Codec
Format profile              : Main@L4.1
Format settings             : CABAC / 4 Ref Frames
Format settings, CABAC      : Yes
Format settings, ReFrames   : 4 frames
Codec ID                    : V_MPEG4/ISO/AVC
Duration                    : 1 h 29 min
Bit rate                    : 2 924 kb/s
Width                       : 1 280 pixels
Height                      : 544 pixels
Display aspect ratio        : 2.35:1
Frame rate mode             : Constant
Frame rate                  : 23.976 (24000/1001) FPS
Standard                    : NTSC
Color space                 : YUV
Chroma subsampling          : 4:2:0
Bit depth                   : 8 bits
Scan type                   : Progressive
Bits/(Pixel*Frame)          : 0.175
Stream size                 : 1.83 GiB (87%)
Language                    : English
Default                     : Yes
Forced                      : No
Color range                 : Limited
Color primaries             : BT.601 NTSC
Transfer characteristics    : BT.601
Matrix coefficients         : BT.601

Audio
ID                          : 2
Format                      : AC-3
Format/Info                 : Audio Coding 3
Codec ID                    : A_AC3
Duration                    : 1 h 29 min
Bit rate mode               : Constant
Bit rate                    : 384 kb/s
Channel(s)                  : 6 channels
Channel positions           : Front: L C R, Side: L R, LFE
Sampling rate               : 48.0 kHz
Frame rate                  : 31.250 FPS (1536 SPF)
Bit depth                   : 16 bits
Compression mode            : Lossy
Stream size                 : 247 MiB (11%)
Language                    : Russian
Service kind                : Complete Main
Default                     : Yes
Forced                      : No




Скриншоты:
[+] Всего файлов в раздаче - 1:
Big.Legend.2018.720p.WEBRip.HiWayGrope.mkv2.12 GB

Текущая раздача:
ДатаКомментарии    РазмерПиры
2018-07-10 U Большая легенда / Big Legend (2018) WEBRip 720p | L2 2.12 GB ↑ 57 ↓ 30

Показать еще раздачи по запросу большая:
2018-10-18 U Маффео Пуансо - Большая энциклопедия тайных знаний и оккультных наук [7 томов] (2016-2018) PDF, FB2 18.90 MB ↑ 132 ↓ 40
2018-10-16 U Серия книг - «Моя большая книга» [129 томов] (2018) FB2 1.34 GB ↑ 79 ↓ 45
2018-09-14 U Большая игра [01-16 из 16] (2018) WEB-DLRip-AVC от Files-x 4.80 GB ↑ 61 ↓ 143
2018-09-14 U Большая игра [01-16 из 16] (2018) WEB-DLRip 4.95 GB ↑ 36 ↓ 102
2018-09-14 U Большая игра [01-16 из 16] (2018) WEB-DLRip от Files-x 4.56 GB ↑ 59 ↓ 77
2018-09-13 U Большая игра [01-16 из 16] (2018) WEB-DL 720p от Files-x 8.31 GB ↑ 138 ↓ 817
2018-09-13 U Большая игра [01-15 из 16] (2018) WEB-DLRip от Files-x 4.27 GB ↑ 119 ↓ 145

Отзывы
Зарегистрируйтесь чтобы добавить комментарий.
Обратная связь
Copyleft ©