↑↓Torrent.by
Поиск
Логин: Регистрация
Пароль: Восстановить пароль
Загрузка...

Третье убийство / Sandome no satsujin (2017) WEB-DL 1080p | P

Скачать trete-ubiystvo-sandome-no-satsujin-2017-web-dl-1080p-p.torrent
U Магнитная ссылка Размер: 4.78 GB Раздают: 53 Качают: 33 Добавлен: 2018-07-10 20:43:30
Третье убийство / Sandome no satsujin (2017) WEB-DL 1080p | P

Название: Третье убийство
Оригинальное название: Sandome no satsujin
Год выхода: 2017
Жанр: драма, детектив
Режиссер: Хирокадзу Корээда
В ролях: Масахару Фукуяма, Кодзи Якусё, Синносукэ Мицусима, Микако Итикава, Идзуми Мацуока, Исао Хасидзумэ, Судзу Хиросэ, Хадзимэ Иноэ, Адзю Макита, Итиро Огура

О фильме:
Совершено дерзкое убийство. Злодей схвачен и предстает перед судом. 30 лет назад этот человек по имени Мисуми уже совершал аналогичное преступление, и теперь ему грозит смертная казнь. Защищать обвиняемого берутся адвокаты во главе с молодым юристом Сигэмори. Несмотря на то, что его клиент признал свою вину, Сигэмори пытается найти смягчающие обстоятельства. Чем глубже он проникает в суть дела, тем более противоречивым оно становится. Показания жены и дочери убитого полны недомолвок, тогда как общение с подзащитным заставляет Сигэмори испытывать к нему странную, почти мистическую симпатию. Постепенно он все больше проникается мыслью, что Мисуми никакой не убийца.

Страна: Япония
Студия: Amuse, Fuji IG Laboratory for Movies (FILM), Fuji Television Network Inc., GAGA
Продолжительность: 02:04:37
Перевод: Профессиональный многоголосный, закадровый [iTunes]

Файл
Кодек: H.264
Качество: WEB-DL 1080p
Видео: AVC, 1920x800 (2.40:1), 24 fps ~ 5120 Kbps
Звук: AC3, 48 KHz,  6 ch ~ 384 Kb/s
Субтитры: отсутствуют

Семпл


[+] MI:

Общее
Уникальный идентификатор : 253617089464572023896968207952452571212 (0xBECCDFEC6484B555BB6F7B441D04D04C)
Полное имя : Q:TorFSandome no satsujin WEB-DL 1080p-LQ.mkv
Формат : Matroska
Версия формата : Version 2
Размер файла : 4,78 Гбайт
Продолжительность : 2 ч. 4 м.
Общий поток : 5492 Кбит/сек
Дата кодирования : UTC 2018-07-09 14:00:49
Программа кодирования : mkvmerge v5.5.0 ('Healer') built on Apr 6 2012 21:43:24
Библиотека кодирования : libebml v1.2.3 + libmatroska v1.3.0
DURATION : 02:04:37.248000000
NUMBER_OF_FRAMES : 233664
NUMBER_OF_BYTES : 358907904
_STATISTICS_WRITING_APP : mkvmerge v24.0.0 ('Beyond The Pale') 64-bit
_STATISTICS_WRITING_DATE_UTC : 2018-07-09 12:57:07
_STATISTICS_TAGS : BPS DURATION NUMBER_OF_FRAMES NUMBER_OF_BYTES

Видео
Идентификатор : 1
Формат : AVC
Формат/Информация : Advanced Video Codec
Профиль формата : High@L4.0
Параметр CABAC формата : Да
Параметр ReFrames формата : 4 кадра
Идентификатор кодека : V_MPEG4/ISO/AVC
Продолжительность : 2 ч. 4 м.
Битрейт : 5120 Кбит/сек
Ширина : 1920 пикселей
Высота : 800 пикселей
Соотношение сторон : 2,40:1
Режим частоты кадров : Переменный
Частота кадров : 24,000 кадра/сек
Цветовое пространство : YUV
Субдискретизация насыщенности : 4:2:0
Битовая глубина : 8 бит
Тип развёртки : Прогрессивная
Бит/(Пиксели*Кадры) : 0.139
Размер потока : 4,35 Гбайт (91%)
Библиотека кодирования : x264 core 142
Настройки программы : cabac=1 / ref=3 / deblock=1:0:0 / analyse=0x3:0x113 / me=hex / subme=7 / psy=1 / psy_rd=1.00:0.00 / mixed_ref=1 / me_range=16 / chroma_me=1 / trellis=1 / 8x8dct=1 / cqm=0 / deadzone=21,11 / fast_pskip=1 / chroma_qp_offset=-2 / threads=36 / lookahead_threads=6 / sliced_threads=0 / nr=0 / decimate=1 / interlaced=0 / bluray_compat=0 / constrained_intra=0 / bframes=6 / b_pyramid=2 / b_adapt=1 / b_bias=0 / direct=1 / weightb=1 / open_gop=0 / weightp=2 / keyint=48 / keyint_min=25 / scenecut=0 / intra_refresh=0 / rc_lookahead=40 / rc=2pass / mbtree=1 / bitrate=5120 / ratetol=1.0 / qcomp=0.60 / qpmin=0 / qpmax=69 / qpstep=4 / cplxblur=20.0 / qblur=0.5 / vbv_maxrate=7680 / vbv_bufsize=20480 / nal_hrd=none / filler=0 / ip_ratio=1.40 / aq=1:1.00
Язык : Russian
Default : Да
Forced : Нет

Аудио
Идентификатор : 2
Формат : AC-3
Формат/Информация : Audio Coding 3
Расширение режима : CM (complete main)
Идентификатор кодека : A_AC3
Продолжительность : 2 ч. 4 м.
Вид битрейта : Постоянный
Битрейт : 384 Кбит/сек
Каналы : 6 каналов
Расположение каналов : Front: L C R, Side: L R, LFE
Частота : 48,0 КГц
Битовая глубина : 16 бит
Метод сжатия : С потерями
Размер потока : 342 Мбайт (7%)
Язык : Russian
Default : Да
Forced : Нет

Меню
00:00:00.000 : :Chapter 1
00:10:00.000 : :Chapter 2
00:20:00.000 : :Chapter 3
00:30:00.000 : :Chapter 4
00:40:00.000 : :Chapter 5
00:50:00.000 : :Chapter 6
01:00:00.000 : :Chapter 7
01:10:00.000 : :Chapter 8
01:20:00.000 : :Chapter 9
01:30:00.000 : :Chapter 10
01:40:00.000 : :Chapter 11
01:50:00.000 : :Chapter 12
02:00:00.000 : :Chapter 13



Скриншоты:
[+] Всего файлов в раздаче - 1:
Sandome no satsujin WEB-DL 1080p-LQ.mkv4.78 GB

Текущая раздача:
ДатаКомментарии    РазмерПиры
2018-07-10 U Третье убийство / Sandome no satsujin (2017) WEB-DL 1080p | P 4.78 GB ↑ 53 ↓ 33

Показать еще раздачи по запросу третье:
2018-07-31 U Третье убийство / Sandome no satsujin (2017) HDRip от Scarabey | iTunes 1.39 GB ↑ 19 ↓ 9
2018-07-29 U Третье убийство / Sandome no satsujin (2017) BDRip от MegaPeer | iTunes 2.13 GB ↑ 36 ↓ 10
2018-07-28 U Третье убийство / Sandome no satsujin (2017) BDRip от MegaPeer | iTunes 1.46 GB ↑ 96 ↓ 9
2018-07-11 U Третье убийство / Sandome no satsujin (2017) WEB-DLRip-AVC от KinoHitHD | iTunes 1.98 GB ↑ 323 ↓ 18
2018-07-11 U Третье убийство / Sandome no satsujin (2017) HDRip-AVC от OlLanDGroup | iTunes 1.08 GB ↑ 18 ↓ 13
2018-07-11 U Третье убийство / Sandome no satsujin (2017) BDRip 1080p | iTunes 9.33 GB ↑ 74 ↓ 38
2018-07-11 U Третье убийство / Sandome no satsujin (2017) HDRip от MegaPeer | iTunes 1.46 GB ↑ 99 ↓ 39

Отзывы
Зарегистрируйтесь чтобы добавить комментарий.
Обратная связь
Copyleft ©