↑↓Torrent.by
Поиск
Логин: Регистрация
Пароль: Восстановить пароль
Загрузка...

Бесит быть нормальным / Mad to Be Normal (2017) WEBRip 1080p | GreenРай Studio

Скачать besit-byt-normalnym-mad-to-be-normal-2017-webrip-1080p-greenray-studio.torrent
U Магнитная ссылка Размер: 3.26 GB Раздают: 53 Качают: 7 Добавлен: 2018-07-10 20:44:32
Бесит быть нормальным / Mad to Be Normal (2017) WEBRip 1080p | GreenРай Studio

Год выхода: 2017
Наименование: Бесит быть нормальным
Оригинальное наименование: Mad to Be Normal
Страна: Великобритания
Жанр:  драма, биография, история
Режиссер постановщик: Роберт Маллан
В главных ролях: Элизабет Мосс, Дэвид Теннант, Майкл Гэмбон, Гэбриел Бирн, Дэвид Бамбер, Тревор Уайт, Оливия Пуле, Дэвид Эннэн, Джером Холдер, Зак Холлэнд

О фильме: 60-е годы ХХ века. Р. Д. Лэйнг - шотландский психиатр, который возмущён тем, как его коллеги по цеху относятся к своим пациентам: клиники-тюрьмы, принудительное лечение, электрошок. Он открывает собственный центр в большом доме в восточном Лондоне, где разрабатывает новые способы работы с больными: групповая терапия, совместные разговоры, никакого насилия и лекарств (хотя врачебные дозы ЛСД никому не помешают). Профессиональное сообщество же смотрит на доктора так, словно он основал странный и потенциально опасный культ.

Файл
Качество:  WEBRip 1080p
Видео данные: MKV, 1920x816 (2.35:1), 23.976 fps, 4000 Кбит/с
Аудио данные: AC3, 2 ch, 448 Кбит/с
Перевод: Любительский многоголосый (GreenРай Studio)
Продолжительность: 01:46:19

Внимание, имеется  видео и аудио реклама от спонсора показа

Релиз:


[+] Медиаинфо
General
Unique ID                                : 211048575618951935267470508251097195455 (0x9EC67A2688B0A4C7BA4836D18935E3BF)
Complete name                            : E:ГРИНРАЙMad.to.Be.Normal.2017.P.WEB-DL.1080p.mkv
Format                                   : Matroska
Format version                           : Version 4 / Version 2
File size                                : 3.26 GiB
Duration                                 : 1 h 46 min
Overall bit rate mode                    : Constant
Overall bit rate                         : 4 389 kb/s
Encoded date                             : UTC 2018-07-09 18:16:28
Writing application                      : mkvmerge v6.5.0 ('Isn't she lovely') built on Oct 20 2013 12:50:05
Writing library                          : libebml v1.3.0 + libmatroska v1.4.1

Video
ID                                       : 1
Format                                   : AVC
Format/Info                              : Advanced Video Codec
Format profile                           : Main@L4
Format settings                          : CABAC / 3 Ref Frames
Format settings, CABAC                   : Yes
Format settings, RefFrames               : 3 frames
Format settings, GOP                     : M=1, N=15
Codec ID                                 : V_MPEG4/ISO/AVC
Duration                                 : 1 h 46 min
Bit rate mode                            : Constant
Bit rate                                 : 4 000 kb/s
Width                                    : 1 920 pixels
Height                                   : 816 pixels
Display aspect ratio                     : 2.35:1
Frame rate mode                          : Constant
Frame rate                               : 23.976 (24000/1001) FPS
Standard                                 : NTSC
Color space                              : YUV
Chroma subsampling                       : 4:2:0
Bit depth                                : 8 bits
Scan type                                : Progressive
Bits/(Pixel*Frame)                       : 0.106
Stream size                              : 2.86 GiB (88%)
Language                                 : English
Default                                  : Yes
Forced                                   : No
Color range                              : Limited

Audio
ID                                       : 2
Format                                   : AC-3
Format/Info                              : Audio Coding 3
Codec ID                                 : A_AC3
Duration                                 : 1 h 46 min
Bit rate mode                            : Constant
Bit rate                                 : 448 kb/s
Channel(s)                               : 2 channels
Channel positions                        : Front: L R
Sampling rate                            : 48.0 kHz
Frame rate                               : 31.250 FPS (1536 SPF)
Bit depth                                : 16 bits
Compression mode                         : Lossy
Stream size                              : 341 MiB (10%)
Service kind                             : Complete Main
Default                                  : Yes
Forced                                   : No



Скриншоты:
[+] Всего файлов в раздаче - 1:
Mad.to.Be.Normal.2017.P.WEB-DL.1080p.mkv3.26 GB

Текущая раздача:
ДатаКомментарии    РазмерПиры
2018-07-10 U Бесит быть нормальным / Mad to Be Normal (2017) WEBRip 1080p | GreenРай Studio 3.26 GB ↑ 53 ↓ 7

Похожие раздачи по запросу - бесит:
2018-07-10 U Бесит быть нормальным / Mad to Be Normal (2017) WEBRip | GreenРай Studio 1.36 GB ↑ 41 ↓ 11
2018-04-01 U Бесит быть нормальным / Mad to Be Normal (2017) HDTVRip | GreenРай Studio 1.37 GB ↑ 152 ↓ 20

Отзывы
Зарегистрируйтесь чтобы добавить комментарий.
Обратная связь
Copyleft ©