↑↓Torrent.by
Поиск
Логин: Регистрация
Пароль: Восстановить пароль
Загрузка...

Воздушные убийцы / Hover (2018) WEBRip | L2

Скачать vozdushnye-ubiycy-hover-2018-webrip-l2.torrent
U Магнитная ссылка Размер: 1.27 GB Раздают: 44 Качают: 60 Добавлен: 2018-07-10 20:44:55
Воздушные убийцы / Hover (2018) WEBRip | L2

Название: Воздушные убийцы
Оригинальное название: Hover
Год выхода: 2018
Жанр: Фантастика
Режиссер: Мэтт Остерман
В ролях: Клеопатра Коулмэн, Шэйн Цвинер, Мумс Да Шемер, Фаббианн Терез, Рода Гриффис, Лео Фицпатрик, Бет Грант, Ронда Дентс, Касандра Бандфилд, Д. Хендерсон Бэйкер и другие
О фильме:
Во всем мире идет борьба с засухой и вызванным ею голодом. Вот и компания Вастгроу занимается решением данной проблемы, разрабатывая автономные дроны для сельского хозяйства. Однако машины, созданные для того, чтобы помогать людям, оказались воздушными убийцами. Найдется ли тот, кто сможет их остановить?

Страна: США, Snowfort Pictures
Продолжительность: 01:26:59
Перевод: Любительский (двухголосый закадровый) | HiWay Grope

Файл
Кодек: XviD
Качество: WEBRip
Видео: 720x304, 23.976 fps, ~1694 kbps, 0.32 bit/pixel
Звук:
Аудио rus: AC3, 48 kHz, 6 ch, 384 Kbps
Субтитры: отсутствуют

Реклама: присутствует

Семпл

Релиз от: HiWay Grope


[+] MediaInfo:

General
Complete name               : D:Hover.2018.WEBRip.HiWayGropeHover.2018.WEBRip.HiWayGrope.avi
Format                      : AVI
Format/Info                 : Audio Video Interleave
File size                   : 1.27 GiB
Duration                    : 1 h 26 min
Overall bit rate            : 2 088 kb/s
Writing application         : VirtualDubMod 1.5.10.3 (build 2550/release)
Writing library             : VirtualDubMod build 2550/release

Video
ID                          : 0
Format                      : MPEG-4 Visual
Format profile              : Advanced Simple@L5
Format settings             : BVOP1
Format settings, BVOP       : 1
Format settings, QPel       : No
Format settings, GMC        : No warppoints
Format settings, Matrix     : Default (MPEG)
Codec ID                    : XVID
Codec ID/Hint               : XviD
Duration                    : 1 h 26 min
Bit rate                    : 1 695 kb/s
Width                       : 720 pixels
Height                      : 304 pixels
Display aspect ratio        : 2.35:1
Frame rate                  : 23.976 (24000/1001) FPS
Original frame rate         : 23.976 (23976/1000) FPS
Color space                 : YUV
Chroma subsampling          : 4:2:0
Bit depth                   : 8 bits
Scan type                   : Progressive
Compression mode            : Lossy
Bits/(Pixel*Frame)          : 0.323
Stream size                 : 1.03 GiB (81%)
Writing library             : XviD 73

Audio
ID                          : 1
Format                      : AC-3
Format/Info                 : Audio Coding 3
Codec ID                    : 2000
Duration                    : 1 h 26 min
Bit rate mode               : Constant
Bit rate                    : 384 kb/s
Channel(s)                  : 6 channels
Channel positions           : Front: L C R, Side: L R, LFE
Sampling rate               : 48.0 kHz
Frame rate                  : 31.250 FPS (1536 SPF)
Bit depth                   : 16 bits
Compression mode            : Lossy
Stream size                 : 239 MiB (18%)
Alignment                   : Split accross interleaves
Interleave, duration        : 42  ms (1.00 video frame)
Interleave, preload duratio : 500  ms
Service kind                : Complete Main




Скриншоты:
[+] Всего файлов в раздаче - 1:
Hover.2018.WEBRip.HiWayGrope.avi1.27 GB

Текущая раздача:
ДатаКомментарии    РазмерПиры
2018-07-10 U Воздушные убийцы / Hover (2018) WEBRip | L2 1.27 GB ↑ 44 ↓ 60

Похожие раздачи по запросу - воздушные:
2018-07-10 U Воздушные убийцы / Hover (2018) WEBRip 720p | L2 2.05 GB ↑ 59 ↓ 58
2017-03-05 U Зоряна Ивченко - Воздушные блинчики, оладьи, вафли (2016) PDF 19.43 MB ↑ 188 ↓ 17
2014-03-05 U Воздушные силы Гитлеровской армии: пикирующий бомбардировщик Юнкерс JU-87 / Wings of Luftwaffe: Ju-87 (1992) DVDRip 600.80 MB ↑ 55 ↓ 12
2014-03-05 U Воздушные силы Советской Армии: Як-3 / Discovery: Wings of the Red Star - The Great Patriotic War (1993) DVDRip 602.83 MB ↑ 416 ↓ 1

Отзывы
Зарегистрируйтесь чтобы добавить комментарий.
Обратная связь
Copyleft ©