↑↓Torrent.by
Поиск
Логин: Регистрация
Пароль: Восстановить пароль
Загрузка...

Смешарики. Дежавю (2018) BDRip-AVC | Лицензия

Скачать smeshariki-dezhavyu-2018-bdrip-avc-licenziya.torrent
U Магнитная ссылка Размер: 1.69 GB Раздают: 46 Качают: 31 Добавлен: 2018-07-10 20:45:01
Смешарики. Дежавю (2018) BDRip-AVC | Лицензия

Название: Смешарики. Дежавю
Год выхода: 2018
Жанр: Мультфильм, комедия, приключения, семейный
Страна: Россия
Перевод: Не требуется
Продолжительность: 01:25:03
Режиссер: Денис Чернов
Роли дублировали: Павел Деревянко, Антон Виноградов, Сергей Мардарь, Михаил Черняк, Владимир Постников, Светлана Письмиченко, Вадим Бочанов, Михаил Хрусталёв и др.

О фильме: Крош решает устроить незабываемый день рождения Копатыча — он обращается в агентство «Дежавю», которое обещает своим клиентам удивительные путешествия во времени. Но из-за несоблюдения условий договора всех смешариков раскидывает во времени, а Крошу придется собирать друзей по разным эпохам в компании своего второго «Я» — повзрослевшего и ворчливого Шорка, появившегося из-за временного парадокса.

Файл
Формат: MKV
Качество: BDRip
Видео: MPEG-4 AVC, 1024x428, 2200 kbps, 24,000 fps
Звук: русский, AC3 5.1, 48 kHz, 640 kbps | Лицензия
Субтитры: нет
[+] MI
General
Уникальный идентификатор                 : 220409953044320951138313403827590756037 (0xA5D169B1409178A995377B48871376C5)
Полное имя                               : F:TorrentSmeshariki2018BDRipAVC.mkv
Формат                                   : Matroska
Версия формата                           : Version 4 / Version 2
Размер файла                             : 1.69 GiB
Продолжительность                        : 1 h 25 min
Общий поток                              : 2 841 kb/s
Дата кодирования                         : UTC 2018-07-10 10:47:15
Программа кодирования                    : mkvmerge v9.5.0 ('Quiet Fire') 64bit
Библиотека кодирования                   : libebml v1.3.4 + libmatroska v1.4.5

Video
Идентификатор                            : 1
Формат                                   : AVC
Формат/Информация                        : Advanced Video Codec
Профиль формата                          : High@L4.1
Настройки формата                        : CABAC / 10 Ref Frames
Параметр CABAC формата                   : Yes
Параметр RefFrames формата               : 10 frames
Идентификатор кодека                     : V_MPEG4/ISO/AVC
Продолжительность                        : 1 h 25 min
Битрейт                                  : 2 200 kb/s
Ширина                                   : 1 024 pixels
Высота                                   : 428 pixels
Соотношение сторон                       : 2.40:1
Режим частоты кадров                     : Constant
Частота кадров                           : 24.000 FPS
Цветовое пространство                    : YUV
Субдискретизация насыщенности            : 4:2:0
Битовая глубина                          : 8 bits
Тип развёртки                            : Progressive
Бит/(Пиксели*Кадры)                      : 0.209
Размер потока                            : 1.31 GiB (77%)
Библиотека кодирования                   : x264 core 155 r2901M 7d0ff22
Настройки программы                      : cabac=1 / ref=10 / deblock=1:-3:-3 / analyse=0x3:0x133 / me=umh / subme=11 / psy=1 / psy_rd=1.00:0.00 / mixed_ref=1 / me_range=48 / chroma_me=1 / trellis=2 / 8x8dct=1 / cqm=0 / deadzone=21,11 / fast_pskip=0 / chroma_qp_offset=-2 / threads=5 / lookahead_threads=1 / sliced_threads=0 / nr=0 / decimate=0 / interlaced=0 / bluray_compat=0 / constrained_intra=0 / bframes=10 / b_pyramid=2 / b_adapt=2 / b_bias=0 / direct=3 / weightb=1 / open_gop=0 / weightp=2 / keyint=240 / keyint_min=24 / scenecut=40 / intra_refresh=0 / rc_lookahead=120 / rc=2pass / mbtree=0 / bitrate=2200 / ratetol=1.0 / qcomp=0.70 / qpmin=0 / qpmax=69 / qpstep=4 / cplxblur=20.0 / qblur=0.5 / vbv_maxrate=62500 / vbv_bufsize=78125 / nal_hrd=none / filler=0 / ip_ratio=1.40 / pb_ratio=1.30 / aq=3:0.80
Default                                  : Yes
Forced                                   : No
Цветовой диапазон                        : Limited
Основные цвета                           : BT.709
Характеристики трансфера                 : BT.709
Коэффициенты матрицы                     : BT.709

Audio
Идентификатор                            : 2
Формат                                   : AC-3
Формат/Информация                        : Audio Coding 3
Идентификатор кодека                     : A_AC3
Продолжительность                        : 1 h 25 min
Вид битрейта                             : Constant
Битрейт                                  : 640 kb/s
Каналы                                   : 6 channels
Расположение каналов                     : Front: L C R, Side: L R, LFE
Частота                                  : 48.0 kHz
Частота кадров                           : 31.250 FPS (1536 SPF)
Битовая глубина                          : 16 bits
Метод сжатия                             : Lossy
Размер потока                            : 389 MiB (23%)
Язык                                     : Russian
Default                                  : Yes
Forced                                   : No

Menu
00:00:00.000                             : en:Chapter 1
00:01:04.166                             : en:Chapter 2
00:09:00.750                             : en:Chapter 3
00:20:01.500                             : en:Chapter 4
00:30:27.458                             : en:Chapter 5
00:41:08.791                             : en:Chapter 6
00:51:13.041                             : en:Chapter 7
01:00:43.375                             : en:Chapter 8
01:10:59.208                             : en:Chapter 9




Скриншоты:
[+] Всего файлов в раздаче - 1:
Smeshariki2018BDRipAVC.mkv1.69 GB

Текущая раздача:
ДатаКомментарии    РазмерПиры
2018-07-10 U Смешарики. Дежавю (2018) BDRip-AVC | Лицензия 1.69 GB ↑ 46 ↓ 31

Показать еще раздачи по запросу смешарики:
2018-07-15 U Смешарики. Дежавю (2018) HDRip от ExKinoRay | Лицензия 744.67 MB ↑ 72 ↓ 6
2018-07-10 U Смешарики. Дежавю (2018) BDRip 720p | Лицензия 4.25 GB ↑ 61 ↓ 29
2018-07-10 U Смешарики. Дежавю (2018) BDRip 1080p | Лицензия 6.92 GB ↑ 62 ↓ 55
2018-07-10 U Смешарики. Дежавю (2018) BDRip | Лицензия 1.43 GB ↑ 117 ↓ 55
2016-05-29 U Смешарики. Легенда о золотом драконе (2016) BDRip от ExKinoRay | Лицензия 1.46 GB ↑ 436 ↓ 5
2016-05-29 U Смешарики. Легенда о золотом драконе (2016) BDRip 720р от SuperMin 2.55 GB ↑ 144 ↓ 60
2016-05-27 U Смешарики. Легенда о золотом драконе (2016) BDRip 1080p от NNNB | Лицензия 5.76 GB ↑ 197 ↓ 80

Отзывы
Зарегистрируйтесь чтобы добавить комментарий.
Обратная связь
Copyleft ©