↑↓Torrent.by
Поиск
Логин: Регистрация
Пароль: Восстановить пароль
Загрузка...

Подглядывающий / L'uomo che guarda (1994) BDRip-AVC от ExKinoRay | P2

Скачать podglyadyvayuschiy-l-uomo-che-guarda-1994-bdrip-avc-ot-exkinoray-p2.torrent
U Магнитная ссылка Размер: 746.14 MB Раздают: 93 Качают: 32 Добавлен: 2018-07-11 08:44:01
Подглядывающий / L'uomo che guarda (1994) BDRip-AVC от ExKinoRay | P2

Название: Подглядывающий
Оригинальное название: L'uomo che guarda
Год выхода: 1994
Жанр:  Драма, эротика
Режиссер: Тинто Брасс
В ролях: Катарина Василисса, Франческо Казале, Кристина Гаравалья, Рафаэлла Оффидани, Антонио Салинес, Элеонора Де Грасси, Габри Креа, Мартина Брошар, Франко Бранчароли, Эрика Савастани, Паоло Мурано, Тед Русофф, Мария Ла Роза, Лулу, Маттео

О фильме :
Это фильм о том, что дарит нам высшее наслаждение и боль. Он может помочь понять, как уменьшить боль, а не понравится он разве что ханже и живому мертвецу. Стремясь избавиться от страданий из-за разрыва с любимой женой. Эдуардо твердит стихи Бодлера: «Будь проклят тот кретин, кто впервые смешал воедино любовь и честь». Он уверен: то, что общество выводит за рамки дозволенного, является важнейшей частью человеческой жизни.

Страна: Италия
Студия: Erre Cinematograsica S.r.l., Rodeo Drive
Продолжительность: 01:43:05
Перевод: Профессиональный (двухголосый закадровый)

Файл
Формат: MKV
Качество: BDRip-AVC (BDRemux 1080p)
Видео: MPEG-4 AVC, 742x424, ~ 934 Кбит/с
Аудио:  AAC-HE, 2 ch, ~ 76 Кбит/с
Субтитры: Русские, английские

Релиз:


[+] MI
Общее
Уникальный идентификатор : 187003249083963272939943634772970447008 (0x8CAF8405A05726CAB0625E51316820A0)
Полное имя : D:MOVIESLuomo che guarda.1994.ExKinoRay.mkv
Формат : Matroska
Версия формата : Version 4 / Version 2
Размер файла : 746 Мбайт
Продолжительность : 1 ч. 43 м.
Общий поток : 1012 Кбит/сек
Дата кодирования : UTC 2018-07-10 14:35:39
Программа кодирования : mkvmerge v15.0.0 ('Duel with the Devil') 64-bit
Библиотека кодирования : libebml v1.3.5 + libmatroska v1.4.5

Видео
Идентификатор : 1
Формат : AVC
Формат/Информация : Advanced Video Codec
Профиль формата : High@L4.1
Параметр CABAC формата : Да
Параметр RefFrames формата : 10 кадров
Идентификатор кодека : V_MPEG4/ISO/AVC
Продолжительность : 1 ч. 43 м.
Битрейт : 934 Кбит/сек
Ширина : 752 пикселя
Высота : 424 пикселя
Соотношение сторон : 16:9
Режим частоты кадров : Постоянный
Частота кадров : 23,976 (24000/1001) кадра/сек
Цветовое пространство : YUV
Субдискретизация насыщенности : 4:2:0
Битовая глубина : 8 бит
Тип развёртки : Прогрессивная
Бит/(Пиксели*Кадры) : 0.122
Размер потока : 689 Мбайт (92%)
Библиотека кодирования : x264 core 152 r2851kMod ba24899
Настройки программы : cabac=1 / ref=10 / deblock=1:-3:-3 / analyse=0x3:0x133 / me=umh / subme=11 / psy=1 / fade_compensate=0.00 / psy_rd=1.00:0.15 / mixed_ref=1 / me_range=32 / chroma_me=1 / trellis=2 / 8x8dct=1 / cqm=0 / deadzone=21,11 / fast_pskip=0 / chroma_qp_offset=-3 / threads=6 / lookahead_threads=1 / sliced_threads=0 / nr=0 / decimate=0 / interlaced=0 / bluray_compat=0 / constrained_intra=0 / bframes=10 / b_pyramid=2 / b_adapt=2 / b_bias=0 / direct=3 / weightb=1 / open_gop=0 / weightp=2 / keyint=240 / keyint_min=23 / scenecut=40 / intra_refresh=0 / rc_lookahead=40 / rc=2pass / mbtree=1 / bitrate=934 / ratetol=1.0 / qcomp=0.60 / qpmin=0 / qpmax=69 / qpstep=4 / cplxblur=20.0 / qblur=0.5 / vbv_maxrate=50000 / vbv_bufsize=62500 / nal_hrd=none / filler=0 / ip_ratio=1.40 / aq=3:1.00
Default : Да
Forced : Нет

Аудио
Идентификатор : 2
Формат : AAC
Формат/Информация : Advanced Audio Codec
Профиль формата : HE-AAC / LC
Идентификатор кодека : A_AAC
Продолжительность : 1 ч. 43 м.
Битрейт : 76,0 Кбит/сек
Каналы : 2 канала
Расположение каналов : Front: L R
Частота : 48,0 КГц / 24,0 КГц
Частота кадров : 23,438 кадра/сек (1024 SPF)
Метод сжатия : С потерями
Задержка видео : 31 мс.
Размер потока : 56,0 Мбайт (8%)
Язык : Russian
Default : Да
Forced : Нет

Текст #1
Идентификатор : 3
Формат : UTF-8
Идентификатор кодека : S_TEXT/UTF8
Идентификатор кодека/Информация : UTF-8 Plain Text
Продолжительность : 1 ч. 39 м.
Битрейт : 71 бит/сек
ElementCount : 696
Размер потока : 52,1 Кбайт (0%)
Язык : Russian
Default : Нет
Forced : Нет

Текст #2
Идентификатор : 4
Формат : UTF-8
Идентификатор кодека : S_TEXT/UTF8
Идентификатор кодека/Информация : UTF-8 Plain Text
Продолжительность : 1 ч. 39 м.
Битрейт : 39 бит/сек
ElementCount : 914
Размер потока : 28,8 Кбайт (0%)
Заголовок : Blu-ray
Язык : English
Default : Нет
Forced : Нет

Текст #3
Идентификатор : 5
Формат : UTF-8
Идентификатор кодека : S_TEXT/UTF8
Идентификатор кодека/Информация : UTF-8 Plain Text
Продолжительность : 1 ч. 39 м.
Битрейт : 39 бит/сек
ElementCount : 914
Размер потока : 28,8 Кбайт (0%)
Заголовок : DVD
Язык : English
Default : Нет
Forced : Нет

Меню
00:00:00.000 : en:00:00:00.000
00:09:50.131 : en:00:09:50.131
00:15:24.966 : en:00:15:24.966
00:22:59.211 : en:00:22:59.211
00:38:33.436 : en:00:38:33.436
00:46:36.627 : en:00:46:36.627
00:59:44.831 : en:00:59:44.831
01:04:44.839 : en:01:04:44.839
01:13:33.492 : en:01:13:33.492
01:20:54.224 : en:01:20:54.224
01:28:54.162 : en:01:28:54.162
01:33:27.477 : en:01:33:27.477



Скриншоты:
[+] Всего файлов в раздаче - 1:
Luomo che guarda.1994.ExKinoRay.mkv746.14 MB

Текущая раздача:
ДатаКомментарии    РазмерПиры
2018-07-11 U Подглядывающий / L'uomo che guarda (1994) BDRip-AVC от ExKinoRay | P2 746.14 MB ↑ 93 ↓ 32

Похожие раздачи по запросу - подглядывающий:
2017-12-28 U Подглядывающий / Giochi particolari (1970) SATRip | P2 1.84 GB ↑ 69 ↓ 27
2017-06-27 U Подглядывающий / L'uomo che guarda (1994) BDRip | P2 1.46 GB ↑ 48 ↓ 43
2017-06-27 U Подглядывающий на пляже / Voyeur beach (2002) DVDRip 1.37 GB ↑ 126 ↓ 39
2013-12-17 U Подглядывающий на кухне / Kick the Cock (2008) HDRip от ExKinoRay 1К149.71 MB ↑ 290 ↓ 47
2013-11-18 U Подглядывающий на кухне / Kick the Cock (2008) BDRip 720p 614.76 MB ↑ 138 ↓ 37

Отзывы
Зарегистрируйтесь чтобы добавить комментарий.
Обратная связь
Copyleft ©