↑↓Torrent.by
Поиск
Логин: Регистрация
Пароль: Восстановить пароль
Загрузка...

Простоквашино [01x01-04 из 30] (2018) WEB-DLRip 720p

Скачать prostokvashino-01x01-04-iz-30-2018-web-dlrip-720p.torrent
U Магнитная ссылка Размер: 425.18 MB Раздают: 73 Качают: 33 Добавлен: 2018-07-11 08:44:35
Простоквашино [01x01-04 из 30] (2018) WEB-DLRip 720p

Название: Простоквашино
Год выхода: 2018
Жанр:  Мультфильм, семейный
Режиссер: Михаил Солошенко

В ролях: Антон Табаков, Юлия Меньшова, Иван Охлобыстин, Ольга Голованова, Андрей Тенетко, Гарик Сукачёв, Алексей Онежен

О фильме:
Казалось, никакие бури внешнего мира не смогут поколебать привычный и размеренный ход деревенской жизни Простоквашино. Время как будто застыло. Все так же каждое утро Матроскин дегустирует свежее молоко, полученное от своей любимицы — коровы Мурки. Все так же Шарик проводит время в окрестных лесах, «фотоохотясь» на редкую дичь. Правда, теперь он научился выкладывать фотографии своей добычи в интернет. И все так же, при каждой возможности, их навещает Дядя Федор. И тогда они весело и дружно проводят время своей мужской компанией. И когда им уже стало казаться, что так будет всегда, внезапно все изменилось с появлением одной маленькой девочки, родной сестры Дяди Фёдора. И имя этой девочки — Вера Павловна.

Страна: Россия
Продолжительность: 4 ~ 00:06:00
Перевод: Не требуется

Файл
Формат: MKV
Качество: WEB-DLRip 720p
Видео: High@L4.1, ~2500 Кбит/с, 1280x720
Аудио: 48 kHz, AC3 Dolby Digital, 2/0 (L,R) ch, ~192 kbps


[+] M/I
x264 info:
x264 info: frame I:108   Avg QP:11.25  size:241704
x264 info: frame P:3132  Avg QP:16.84  size: 22613
x264 info: frame B:6507  Avg QP:21.68  size:  3877
x264 info: consecutive B-frames:  8.8%  7.7% 17.3% 45.7% 10.7%  3.3%  1.0%  1.7%  1.8%  0.9%  0.2%  0.5%  0.4%

General
Unique ID                   : 4604783132012294258489585055417142296 (0x376D9563CE3C763B319BF2CDE028C18)
Complete name               : E:ВИДЕО_2Простоквашино (2018) WEB-DLRip_720p1_Простоквашино_WEB_DLRIP.720p_[-=DoMiNo=-].mkv
Format                      : Matroska
Format version              : Version 4 / Version 2
File size                   : 125 MiB
Duration                    : 6 min 30 s
Overall bit rate            : 2 695 kb/s
Writing application         : XviD4PSP 7.0.452 DAILY
Writing library             : Lavf57.71.100
ErrorDetectionType          : Per level 1
Attachments                 : poster.jpg
ENCODING_INFO               : MATROSKA,WEBM > MKV 720p / H264 > X264 VBR-2P 2500kbps Пользовательский / AC3 > COPY Безопасное
Language                    : und

Video
ID                          : 1
Format                      : AVC
Format/Info                 : Advanced Video Codec
Format profile              : High@L4.1
Format settings             : CABAC / 9 Ref Frames
Format settings, CABAC      : Yes
Format settings, ReFrames   : 9 frames
Codec ID                    : V_MPEG4/ISO/AVC
Duration                    : 6 min 30 s
Bit rate                    : 2 500 kb/s
Width                       : 1 280 pixels
Height                      : 720 pixels
Display aspect ratio        : 16:9
Frame rate mode             : Constant
Frame rate                  : 25.000 FPS
Color space                 : YUV
Chroma subsampling          : 4:2:0
Bit depth                   : 8 bits
Scan type                   : Progressive
Bits/(Pixel*Frame)          : 0.109
Stream size                 : 114 MiB (91%)
Title                       : RIP_BY_-=DoMiNo=-
Writing library             : x264 core 155 r2901M 7d0ff22
Encoding settings           : cabac=1 / ref=9 / deblock=1:0:0 / analyse=0x3:0x133 / me=umh / subme=11 / psy=1 / psy_rd=1.05:0.20 / mixed_ref=1 / me_range=32 / chroma_me=1 / trellis=2 / 8x8dct=1 / cqm=0 / deadzone=21,11 / fast_pskip=0 / chroma_qp_offset=-3 / threads=6 / lookahead_threads=1 / sliced_threads=0 / nr=0 / decimate=1 / interlaced=0 / bluray_compat=0 / constrained_intra=0 / bframes=12 / b_pyramid=2 / b_adapt=2 / b_bias=0 / direct=3 / weightb=1 / open_gop=0 / weightp=2 / keyint=250 / keyint_min=25 / scenecut=40 / intra_refresh=0 / rc_lookahead=50 / rc=2pass / mbtree=1 / bitrate=2500 / ratetol=1.0 / qcomp=0.65 / qpmin=0 / qpmax=69 / qpstep=4 / cplxblur=20.0 / qblur=0.5 / vbv_maxrate=50000 / vbv_bufsize=62500 / nal_hrd=none / filler=0 / ip_ratio=1.40 / aq=2:0.95
Default                     : Yes
Forced                      : No

Audio
ID                          : 2
Format                      : AC-3
Format/Info                 : Audio Coding 3
Codec ID                    : A_AC3
Duration                    : 6 min 30 s
Bit rate mode               : Constant
Bit rate                    : 192 kb/s
Channel(s)                  : 2 channels
Channel positions           : Front: L R
Sampling rate               : 48.0 kHz
Frame rate                  : 31.250 FPS (1536 SPF)
Bit depth                   : 16 bits
Compression mode            : Lossy
Stream size                 : 8.93 MiB (7%)
Language                    : Russian
Service kind                : Complete Main
Default                     : Yes
Forced                      : No



[+] M/I
General
Unique ID                   : 313152033364410251553245418630279748379 (0xEB96E3482FB708237F90B0E77EFA5B1B)
Complete name               : E:ВИДЕО_2Простоквашино (2018) WEB-DLRip_720p4_Простоквашино_WEB_DL_720.mkv
Format                      : Matroska
Format version              : Version 4 / Version 2
File size                   : 48.8 MiB
Duration                    : 6 min 30 s
Overall bit rate            : 1 049 kb/s
Encoded date                : UTC 2018-07-10 19:49:34
Writing application         : mkvmerge v24.0.0 ('Beyond The Pale') 64-bit
Writing library             : libebml v1.3.6 + libmatroska v1.4.9

Video
ID                          : 1
Format                      : AVC
Format/Info                 : Advanced Video Codec
Format profile              : Main@L3.1
Format settings             : CABAC / 3 Ref Frames
Format settings, CABAC      : Yes
Format settings, ReFrames   : 3 frames
Codec ID                    : V_MPEG4/ISO/AVC
Duration                    : 6 min 30 s
Bit rate                    : 921 kb/s
Width                       : 1 280 pixels
Height                      : 720 pixels
Display aspect ratio        : 16:9
Frame rate mode             : Constant
Frame rate                  : 25.000 FPS
Color space                 : YUV
Chroma subsampling          : 4:2:0
Bit depth                   : 8 bits
Scan type                   : Progressive
Bits/(Pixel*Frame)          : 0.040
Stream size                 : 42.8 MiB (88%)
Title                       : РУС
Language                    : Russian
Default                     : Yes
Forced                      : No
Color range                 : Limited
Color primaries             : BT.709
Transfer characteristics    : BT.709
Matrix coefficients         : BT.709

Audio
ID                          : 2
Format                      : AAC
Format/Info                 : Advanced Audio Codec
Format profile              : LC
Codec ID                    : A_AAC-2
Duration                    : 6 min 30 s
Bit rate                    : 126 kb/s
Channel(s)                  : 2 channels
Channel positions           : Front: L R
Sampling rate               : 44.1 kHz
Frame rate                  : 43.066 FPS (1024 SPF)
Compression mode            : Lossy
Stream size                 : 5.84 MiB (12%)
Language                    : Russian
Default                     : Yes
Forced                      : No



Скриншоты:
[+] Всего файлов в раздаче - 4:
01_Простоквашино_WEB_DLRIP.720p_[-=DoMiNo=-].mkv125.31 MB
02_Простоквашино_WEB_DLRIP.720p_[-=DoMiNo=-].mkv125.64 MB
03_Простоквашино_WEB_DLRIP.720p_[-=DoMiNo=-].mkv125.45 MB
04_Простоквашино_WEB_DL_720.mkv48.78 MB

Текущая раздача:
ДатаКомментарии    РазмерПиры
2018-07-11 U Простоквашино [01x01-04 из 30] (2018) WEB-DLRip 720p 425.18 MB ↑ 73 ↓ 33

Показать еще раздачи по запросу простоквашино:
2018-07-15 U Простоквашино [01x01-04 из 30] (2018) WEB-DLRip-AVC от OlLanDGroup 408.04 MB ↑ 53 ↓ 23
2018-07-10 U Простоквашино [01x01-04 из 30] (2018) WEB-DLRip 375.62 MB ↑ 303 ↓ 191
2018-06-11 U Простоквашино [01x01-03 из 30] (2018) WEB-DLRip-AVC от OlLanDGroup 306.13 MB ↑ 173 ↓ 45
2018-06-07 U Простоквашино [01x01-03 из 30] (2018) WEB-DLRip 298.59 MB ↑ 266 ↓ 63
2018-06-06 U Простоквашино [01x01-03 из 30] (2018) WEB-DLRip 720p 376.40 MB ↑ 246 ↓ 159
2018-06-06 U Простоквашино: Сезон дождей [03] (2018) WEB-DL 1080р 243.09 MB ↑ 386 ↓ 102
2018-05-06 U Простоквашино [01x01-02 из 30] (2018) WEB-DLRip-AVC от OlLanDGroup 204.24 MB ↑ 426 ↓ 72

Отзывы
Зарегистрируйтесь чтобы добавить комментарий.
Обратная связь
Copyleft ©