↑↓Torrent.by
Поиск
Логин: Регистрация
Пароль: Восстановить пароль
Загрузка...

Рэмпейдж / Rampage (2018) HDRip от R.G.Resident | Лицензия

Скачать rempeydzh-rampage-2018-hdrip-ot-r-g-resident-licenziya.torrent
U Магнитная ссылка Размер: 2.05 GB Раздают: 16 Качают: 9 Добавлен: 2018-07-11 08:44:48
Рэмпейдж / Rampage (2018) HDRip от R.G.Resident | Лицензия

Название: Рэмпейдж
Оригинальное название: Rampage
Год выпуска: 2018
Страна: США
Жанр: фантастика, боевик, приключения

Перевод: Дублированный [Лицензия]
Субтитры: Русские (форс., вшитые), русские (полные, отдельным файлом)
Продолжительность: 01:47:16
Режиссер: Брэд Пейтон
В ролях: Дуэйн Джонсон (Davis Okoye), Наоми Харрис (Dr. Kate Caldwell), Малин Акерман (Claire Wyden), Джеффри Дин Морган (Harvey Russell), Джейк Лэси (Brett Wyden), Джо Манганьелло (Burke), Марли Шелтон (Dr. Kerry Atkins), П.Дж. Бирн (Nelson), Деметриус Гросс (Colonel Blake), Джек Куэйд (Connor), Бриэнн Хилл (Amy), Мэтт Джералд (Zammit)

Описание:
Приматолог Дэвис Окойи предпочитает держаться подальше от людей и дружит с Джорджем, удивительно умным самцом гориллы, которого он воспитывал с самого рождения. Но вышедший из-под контроля генетический эксперимент превращает послушную обезьяну в яростного монстра. Более того, вскоре обнаруживается, что существуют и другие модифицированные хищники. Пока свежесозданные чудовища превращают в руины Северную Америку, стирая с лица Земли все, что попадается у них на пути, Окойи вместе с опальным генным инженером пытается изобрести антидот, прорываясь по бесконечному полю боя не только, чтобы предотвратить глобальную катастрофу, но и спасти бесстрашное существо, которое когда-то было его другом.

 
MPAA: PG-13 - Детям до 13 лет просмотр не желателен
Качество: HDRip
Формат: AVI
Видео: XviD, 720x304 (2.37:1), 1891 kbps, 23,976 fps
Аудио №1: русский / AC3 / 5.1 / 48 kHz / 448 kbps  - Дубляж
Аудио №2: английский AC3 / 5.1 / 48 kHz / 384 kbps  - Оригинал

Релиз:


[+] ОтчетМедиаИнфо
General
Complete name                            : C:Rampage.2018.Dub.HDRip.R.G.ResidentRampage.2018.Dub.HDRip.R.G.Resident.avi
Format                                   : AVI
Format/Info                              : Audio Video Interleave
Format profile                           : OpenDML
File size                                : 2.05 GiB
Duration                                 : 1 h 47 min
Overall bit rate                         : 2 741 kb/s
Writing application                      : VirtualDubMod 1.5.10.3 | www.virtualdub-fr.org || (build 2550/release)
Writing library                          : VirtualDubMod build 2550/release

Video
ID                                       : 0
Format                                   : MPEG-4 Visual
Format profile                           : Advanced Simple@L5
Format settings, BVOP                    : 1
Format settings, QPel                    : No
Format settings, GMC                     : No warppoints
Format settings, Matrix                  : Custom
Codec ID                                 : XVID
Codec ID/Hint                            : XviD
Duration                                 : 1 h 47 min
Bit rate                                 : 1 891 kb/s
Width                                    : 720 pixels
Height                                   : 304 pixels
Display aspect ratio                     : 2.35:1
Frame rate                               : 23.976 (24000/1001) FPS
Color space                              : YUV
Chroma subsampling                       : 4:2:0
Bit depth                                : 8 bits
Scan type                                : Progressive
Compression mode                         : Lossy
Bits/(Pixel*Frame)                       : 0.360
Stream size                              : 1.42 GiB (69%)
Writing library                          : XviD 73

Audio #1
ID                                       : 1
Format                                   : AC-3
Format/Info                              : Audio Coding 3
Mode extension                           : CM (complete main)
Format settings, Endianness              : Big
Codec ID                                 : 2000
Duration                                 : 1 h 47 min
Bit rate mode                            : Constant
Bit rate                                 : 448 kb/s
Channel(s)                               : 6 channels
Channel positions                        : Front: L C R, Side: L R, LFE
Sampling rate                            : 48.0 kHz
Frame rate                               : 31.250 FPS (1536 spf)
Compression mode                         : Lossy
Stream size                              : 344 MiB (16%)
Alignment                                : Split accross interleaves
Interleave, duration                     : 42  ms (1.00 video frame)
Interleave, preload duration             : 500  ms

Audio #2
ID                                       : 2
Format                                   : AC-3
Format/Info                              : Audio Coding 3
Mode extension                           : CM (complete main)
Format settings, Endianness              : Big
Codec ID                                 : 2000
Duration                                 : 1 h 47 min
Bit rate mode                            : Constant
Bit rate                                 : 384 kb/s
Channel(s)                               : 6 channels
Channel positions                        : Front: L C R, Side: L R, LFE
Sampling rate                            : 48.0 kHz
Frame rate                               : 31.250 FPS (1536 spf)
Compression mode                         : Lossy
Stream size                              : 295 MiB (14%)
Alignment                                : Split accross interleaves
Interleave, duration                     : 42  ms (1.00 video frame)
Interleave, preload duration             : 500  ms    



Скриншоты:
[+] Всего файлов в раздаче - 2:
Rampage.2018.Dub.HDRip.R.G.Resident.avi2.05 GB
Rampage.2018.Dub.HDRip.R.G.Resident.Rus.Full.srt112.65 kB

Текущая раздача:
ДатаКомментарии    РазмерПиры
2018-07-11 U Рэмпейдж / Rampage (2018) HDRip от R.G.Resident | Лицензия 2.05 GB ↑ 16 ↓ 9

Показать еще раздачи по запросу рэмпейдж:
2018-07-13 U Рэмпейдж / Rampage (2018) BDRip 1080p от Ash61 | 3D-Video | halfOU | Лицензия 9.20 GB ↑ 159 ↓ 77
2018-07-12 U Рэмпейдж / Rampage (2018) HDRip от Scarabey | Лицензия 1.45 GB ↑ 1036 ↓ 56
2018-07-12 U Рэмпейдж / Rampage (2018) BDRip от ExKinoRay | Лицензия 1.46 GB ↑ 52 ↓ 13
2018-07-12 U Рэмпейдж / Rampage (2018) BDRip-AVC от HELLYWOOD | Лицензия 1К2.18 GB ↑ 55 ↓ 25
2018-07-11 U Рэмпейдж / Rampage (2018) BDRip-AVC от HELLYWOOD | Лицензия 1К1.46 GB ↑ 85 ↓ 21
2018-07-11 U Рэмпейдж / Rampage (2018) BDRip от GeneralFilm | Лицензия 1.46 GB ↑ 120 ↓ 13
2018-07-11 U Рэмпейдж / Rampage (2018) BDRip 720p от HELLYWOOD | Лицензия 4.36 GB ↑ 126 ↓ 79

Отзывы
Зарегистрируйтесь чтобы добавить комментарий.
Обратная связь
Copyleft ©