↑↓Torrent.by
Поиск
Логин: Регистрация
Пароль: Восстановить пароль
Загрузка...

Третье убийство / Sandome no satsujin (2017) BDRip 1080p | iTunes

Скачать trete-ubiystvo-sandome-no-satsujin-2017-bdrip-1080p-itunes.torrent
U Магнитная ссылка Размер: 9.33 GB Раздают: 35 Качают: 37 Добавлен: 2018-07-11 08:44:59
Третье убийство / Sandome no satsujin (2017) BDRip 1080p | iTunes

Название: Третье убийство
Оригинальное название: Sandome no satsujin / The Third Murder
Год выпуска: 2017
Страна: Япония
Жанр: драма, детектив, криминал

Перевод: Профессиональный многоголосый [iTunes]
Субтитры: русские (Full)
Продолжительность: 02:04:35
Режиссер: Хирокадзу Корээда
В ролях: Масахару Фукуяма (Shigemori), Кодзи Якусё (Misumi), Синносукэ Мицусима (Kawashima Akira), Микако Итикава (Sasabara Itsuki), Идзуми Мацуока (Hattori Akiko), Исао Хасидзумэ (Shigemori Akihisa), Судзу Хиросэ (Sakie), Хадзимэ Иноэ (Ono Minoru), Адзю Макита (Shigemori Yuka), Итиро Огура, Юки Саито (Yamanaka Mitsue), Котаро Ёсида (Settsu Daisuke)

Описание:
Совершено дерзкое убийство. Злодей схвачен и предстает перед судом. 30 лет назад этот человек по имени Мисуми уже совершал аналогичное преступление, и теперь ему грозит смертная казнь. Защищать обвиняемого берутся адвокаты во главе с молодым юристом Сигэмори. Несмотря на то, что его клиент признал свою вину, Сигэмори пытается найти смягчающие обстоятельства. Чем глубже он проникает в суть дела, тем более противоречивым оно становится. Показания жены и дочери убитого полны недомолвок, тогда как общение с подзащитным заставляет Сигэмори испытывать к нему странную, почти мистическую симпатию. Постепенно он все больше проникается мыслью, что Мисуми никакой не убийца.

 
Качество: BDRip 1080p
Формат: MKV
Видео: AVC, 1920x806 (2.40:1), 9562 kbps, 23,976 fps, 0,258 bpp
Аудио №1: русский / AC3 / 5.1 / 48 kHz / 384 kbps / |MVO|
Аудио №2: японский / DTS / 5.1 / 48 kHz / 768 kbps / 24 bit
Навигация по главам: есть
Семпл


[+] ОтчетМедиаИнфо

General
Unique ID                                : 164808347580231865198656778885224184024 (0x7BFCEEE429747D992E940031EEBBB8D8)
Complete name                            : F:torrentfilmThe.Third.Murder.2017.BDRip.1080p.mkv
Format                                   : Matroska
Format version                           : Version 4 / Version 2
File size                                : 9.33 GiB
Duration                                 : 2 h 4 min
Overall bit rate                         : 10.7 Mb/s
Movie name                               : Третье убийство (2017) BDRip 1080p
Encoded date                             : UTC 2018-07-10 17:42:37
Writing application                      : mkvmerge v24.0.0 ('Beyond The Pale') 64-bit
Writing library                          : libebml v1.3.6 + libmatroska v1.4.9
Cover                                    : Yes
Attachments                              : cover.jpg

Video
ID                                       : 1
Format                                   : AVC
Format/Info                              : Advanced Video Codec
Format profile                           : High@L4.1
Format settings, CABAC                   : Yes
Format settings, ReFrames                : 5 frames
Codec ID                                 : V_MPEG4/ISO/AVC
Duration                                 : 2 h 4 min
Bit rate                                 : 9 562 kb/s
Width                                    : 1 920 pixels
Height                                   : 806 pixels
Display aspect ratio                     : 2.40:1
Frame rate mode                          : Constant
Frame rate                               : 23.976 (24000/1001) FPS
Color space                              : YUV
Chroma subsampling                       : 4:2:0
Bit depth                                : 8 bits
Scan type                                : Progressive
Bits/(Pixel*Frame)                       : 0.258
Stream size                              : 8.33 GiB (89%)
Writing library                          : x264 core 129 r2245+704+36 8e61944 tMod+MixAQ [8-bit@4:2:0 X86_64]
Encoding settings                        : cabac=1 / ref=5 / deblock=1:-3:-3 / analyse=0x3:0x133 / me=umh / subme=11 / psy=1 / fade_compensate=0.00 / psy_rd=1.05:0.10 / mixed_ref=1 / me_range=32 / chroma_me=1 / trellis=2 / 8x8dct=1 / cqm=0 / deadzone=21,11 / fast_pskip=0 / chroma_qp_offset=-3 / threads=12 / lookahead_threads=2 / sliced_threads=0 / nr=0 / decimate=0 / interlaced=0 / bluray_compat=0 / constrained_intra=0 / fgo=0 / bframes=10 / b_pyramid=2 / b_adapt=2 / b_bias=0 / direct=3 / weightb=1 / open_gop=0 / weightp=2 / keyint=250 / keyint_min=23 / scenecut=40 / intra_refresh=0 / rc=2pass / mbtree=0 / bitrate=9562 / ratetol=1.0 / qcomp=0.70 / qpmin=0 / qpmax=69 / qpstep=4 / cplxblur=20.0 / qblur=0.5 / ip_ratio=1.40 / pb_ratio=1.30 / aq=1 / aq-strength=0.85 / aq-sensitivity=10.00 / aq-ifactor=1.00 / aq-pfactor=1.00 / aq-bfactor=1.00 / aq2=0
Language                                 : Japanese
Default                                  : Yes
Forced                                   : No

Audio #1
ID                                       : 2
Format                                   : AC-3
Format/Info                              : Audio Coding 3
Mode extension                           : CM (complete main)
Format settings, Endianness              : Big
Codec ID                                 : A_AC3
Duration                                 : 2 h 4 min
Bit rate mode                            : Constant
Bit rate                                 : 384 kb/s
Channel(s)                               : 6 channels
Channel positions                        : Front: L C R, Side: L R, LFE
Sampling rate                            : 48.0 kHz
Frame rate                               : 31.250 FPS (1536 spf)
Compression mode                         : Lossy
Stream size                              : 342 MiB (4%)
Title                                    : MVO | iTunes
Language                                 : Russian
Default                                  : Yes
Forced                                   : No

Audio #2
ID                                       : 3
Format                                   : DTS
Format/Info                              : Digital Theater Systems
Mode                                     : 16
Format settings, Endianness              : Big
Codec ID                                 : A_DTS
Duration                                 : 2 h 4 min
Bit rate mode                            : Constant
Bit rate                                 : 768 kb/s
Channel(s)                               : 6 channels
Channel positions                        : Front: L C R, Side: L R, LFE
Sampling rate                            : 48.0 kHz
Frame rate                               : 93.750 FPS (512 spf)
Bit depth                                : 24 bits
Compression mode                         : Lossy
Stream size                              : 684 MiB (7%)
Title                                    : Original
Language                                 : Japanese
Default                                  : No
Forced                                   : No

Text
ID                                       : 4
Format                                   : UTF-8
Codec ID                                 : S_TEXT/UTF8
Codec ID/Info                            : UTF-8 Plain Text
Duration                                 : 1 h 57 min
Bit rate                                 : 80 b/s
Count of elements                        : 1426
Stream size                              : 69.8 KiB (0%)
Title                                    : Full
Language                                 : Russian
Default                                  : No
Forced                                   : No

Menu
00:00:00.000                             : en:00:00:00.000
00:03:28.541                             : en:00:03:28.541
00:09:01.040                             : en:00:09:01.040
00:13:25.638                             : en:00:13:25.638
00:18:26.939                             : en:00:18:26.939
00:22:33.560                             : en:00:22:33.560
00:27:56.132                             : en:00:27:56.132
00:33:26.546                             : en:00:33:26.546
00:42:03.354                             : en:00:42:03.354
00:46:08.640                             : en:00:46:08.640
00:52:53.712                             : en:00:52:53.712
00:57:30.864                             : en:00:57:30.864
01:07:55.029                             : en:01:07:55.029
01:13:02.503                             : en:01:13:02.503
01:17:25.182                             : en:01:17:25.182
01:26:20.508                             : en:01:26:20.508
01:39:42.476                             : en:01:39:42.476
01:48:06.354                             : en:01:48:06.354
01:54:45.044                             : en:01:54:45.044
02:00:32.225                             : en:02:00:32.225



Скриншоты:
[+] Всего файлов в раздаче - 1:
The.Third.Murder.2017.BDRip.1080p.mkv9.33 GB

Текущая раздача:
ДатаКомментарии    РазмерПиры
2018-07-11 U Третье убийство / Sandome no satsujin (2017) BDRip 1080p | iTunes 9.33 GB ↑ 35 ↓ 37

Похожие раздачи по запросу - третье:
2018-07-11 U Третье убийство / Sandome no satsujin (2017) WEB-DLRip-AVC от KinoHitHD | iTunes 1.98 GB ↑ 56 ↓ 17
2018-07-11 U Третье убийство / Sandome no satsujin (2017) HDRip-AVC от OlLanDGroup | iTunes 1.08 GB ↑ 18 ↓ 11
2018-07-11 U Третье убийство / Sandome no satsujin (2017) HDRip от MegaPeer | iTunes 1.46 GB ↑ 85 ↓ 38
2018-07-10 U Третье убийство / Sandome no satsujin (2017) WEB-DL 1080p | P 4.78 GB ↑ 53 ↓ 33
2018-05-17 U Третье убийство / Sandome no satsujin (2017) HDRip | GreenРай Studio 1.37 GB ↑ 172 ↓ 38

Отзывы
Зарегистрируйтесь чтобы добавить комментарий.
Обратная связь
Copyleft ©