↑↓Torrent.by
Поиск
Логин: Регистрация
Пароль: Восстановить пароль
Загрузка...

Большая легенда / Big Legend (2018) WEB-DL 1080p | L2

Скачать bolshaya-legenda-big-legend-2018-web-dl-1080p-l2.torrent
U Магнитная ссылка Размер: 6.08 GB Раздают: 28 Качают: 15 Добавлен: 2018-07-11 08:45:14
Большая легенда / Big Legend (2018) WEB-DL 1080p | L2

Название: Большая легенда
Оригинальное название: Big Legend
Год выхода: 2018
Жанр: Боевик, триллер
Режиссер: Джастин Ли
В ролях: Кевин Макли, Тодд Робинсон, Аманда Уайсс, Лето Спиро, Эшли Платц, Эдриенн Барбо, Лэнс Хенриксен и другие

О фильме: Тайлер отправляется в тихоокеанские северо-западные густые леса после того, как его невеста неожиданно пропала, отправившись туда на экспедицию. Там он встречает охотника, который решает помочь парню. Идя по стопам учёных, на которых они вышли, герои никак не ожидают, что легенды о Бигфуте окажутся правдивыми.

Страна: США
Продолжительность: 01:29:15
Перевод:Любительский (двухголосый закадровый)  [HiWay Grope]

Файл
Кодек: x.264
Качество: WEB-DL 1080p [Amazon]
Видео:  AVC, 1920x816 (2.35:1), 23.976 fps, 8 918 Kbps
Аудио #1: AC-3, 48.0 KHz, 2 ch, 192 Kbps, CBR (Russian)
Аудио #2: E-AC-3, 48.0 KHz, 6 ch, 640 Kbps, CBR (English)
Субтитры: English

Возможно есть аудио реклама


[+] MI
Общее
Уникальный идентификатор                 : 247099675927337011022234253967255907647 (0xB9E5AAA0827D416B8A828700B5FBAD3F)
Полное имя                               : Big.Legend.2018.1080p.AMZN.WEB-DL.mkv
Формат                                   : Matroska
Версия формата                           : Version 4 / Version 2
Размер файла                             : 6,08 Гбайт
Продолжительность                        : 1 ч. 29 м.
Общий поток                              : 9752 Кбит/сек
Дата кодирования                         : UTC 2018-07-10 16:51:14
Программа кодирования                    : mkvmerge v8.3.0 ('Over the Horizon') 64bit
Библиотека кодирования                   : libebml v1.3.1 + libmatroska v1.4.2

Видео
Идентификатор                            : 1
Формат                                   : AVC
Формат/Информация                        : Advanced Video Codec
Профиль формата                          : High@L4
Настройки формата                        : CABAC / 4 Ref Frames
Параметр CABAC формата                   : Да
Параметр RefFrames формата               : 4 кадра
Идентификатор кодека                     : V_MPEG4/ISO/AVC
Продолжительность                        : 1 ч. 29 м.
Битрейт                                  : 8918 Кбит/сек
Ширина                                   : 1920 пикселей
Высота                                   : 816 пикселей
Соотношение сторон                       : 2,35:1
Режим частоты кадров                     : Постоянный
Частота кадров                           : 23,976 (24000/1001) кадра/сек
Цветовое пространство                    : YUV
Субдискретизация насыщенности            : 4:2:0
Битовая глубина                          : 8 бит
Тип развёртки                            : Прогрессивная
Бит/(Пиксели*Кадры)                      : 0.237
Размер потока                            : 5,56 Гбайт (91%)
Default                                  : Да
Forced                                   : Нет
Цветовой диапазон                        : Limited
Основные цвета                           : BT.709
Характеристики трансфера                 : BT.709
Коэффициенты матрицы                     : BT.709

Аудио #1
Идентификатор                            : 2
Формат                                   : AC-3
Формат/Информация                        : Audio Coding 3
Идентификатор кодека                     : A_AC3
Продолжительность                        : 1 ч. 29 м.
Вид битрейта                             : Постоянный
Битрейт                                  : 192 Кбит/сек
Каналы                                   : 2 канала
Расположение каналов                     : Front: L R
Частота                                  : 48,0 КГц
Частота кадров                           : 31,250 кадров/сек (1536 SPF)
Битовая глубина                          : 16 бит
Метод сжатия                             : С потерями
Размер потока                            : 123 Мбайт (2%)
Заголовок                                : HiWay Grope
Язык                                     : Russian
Default                                  : Да
Forced                                   : Нет

Аудио #2
Идентификатор                            : 3
Формат                                   : E-AC-3
Формат/Информация                        : Enhanced Audio Coding 3
Идентификатор кодека                     : A_EAC3
Продолжительность                        : 1 ч. 29 м.
Вид битрейта                             : Постоянный
Битрейт                                  : 640 Кбит/сек
Каналы                                   : 6 каналов
Расположение каналов                     : Front: L C R, Side: L R, LFE
Частота                                  : 48,0 КГц
Частота кадров                           : 187,500 кадров/сек (256 SPF)
Метод сжатия                             : С потерями
Размер потока                            : 409 Мбайт (7%)
Язык                                     : English
Default                                  : Нет
Forced                                   : Нет

Текст
Идентификатор                            : 4
Формат                                   : UTF-8
Идентификатор кодека                     : S_TEXT/UTF8
Идентификатор кодека/Информация          : UTF-8 Plain Text
Продолжительность                        : 1 ч. 27 м.
Битрейт                                  : 27 бит/сек
ElementCount                             : 676
Размер потока                            : 17,3 Кбайт (0%)
Заголовок                                : SDH
Язык                                     : English
Default                                  : Нет
Forced                                   : Нет



Скриншоты:
[+] Всего файлов в раздаче - 1:
Big.Legend.2018.1080p.AMZN.WEB-DL.mkv6.08 GB

Текущая раздача:
ДатаКомментарии    РазмерПиры
2018-07-11 U Большая легенда / Big Legend (2018) WEB-DL 1080p | L2 6.08 GB ↑ 28 ↓ 15

Показать еще раздачи по запросу большая:
2018-07-15 U Большая легенда / Big Legend (2018) WEB-DLRip-AVC от OlLanDGroup | HDRezka Studio 1.46 GB ↑ 76 ↓ 52
2018-07-15 U Серия книг - «Моя большая книга» [100 томов] (2018) FB2 1.03 GB ↑ 36 ↓ 29
2018-07-10 U Большая легенда / Big Legend (2018) WEBRip 720p | L2 2.12 GB ↑ 52 ↓ 29
2018-07-10 U Большая легенда / Big Legend (2018) WEBRip | L2 1.31 GB ↑ 136 ↓ 62
2018-07-09 U Большая игра / Molly's Game (2017) HDRip от Scarabey | Лицензия 1.45 GB ↑ 29 ↓ 15
2018-07-07 U Серия книг - «Моя большая книга» [90 томов] (2018) FB2 1,000.25 MB ↑ 105 ↓ 34
2018-07-06 U Большая легенда / Big Legend (2018) WEB-DL 1080p | L1 6.36 GB ↑ 56 ↓ 27

Отзывы
Зарегистрируйтесь чтобы добавить комментарий.
Обратная связь
Copyleft ©