↑↓Torrent.by
Поиск
Логин: Регистрация
Пароль: Восстановить пароль
Загрузка...

Рэмпейдж / Rampage (2018) BDRip 1080p от ExKinoRay | Лицензия

Скачать rempeydzh-rampage-2018-bdrip-1080p-ot-exkinoray-licenziya.torrent
U Магнитная ссылка Размер: 11.30 GB Раздают: 18 Качают: 29 Добавлен: 2018-07-11 08:45:40
Рэмпейдж / Rampage (2018) BDRip 1080p от ExKinoRay | Лицензия

Название: Рэмпейдж
Оригинальное название: Rampage
Год выхода: 2018
Жанр: Фантастика, боевик, приключения
Режиссер: Брэд Пейтон
В ролях: Дуэйн Джонсон, Джеффри Дин Морган, Малин Акерман, Джо Манганьелло, Марли Шелтон, Уилл Юн Ли, Наоми Харрис, Джек Куэйд, Джейк Лэси, Бриэнн Хилл

О фильме: Приматолог Дэвис Окойи предпочитает держаться подальше от людей и дружит с Джорджем, удивительно умным самцом гориллы, которого он воспитывал с самого рождения. Но вышедший из-под контроля генетический эксперимент превращает послушную обезьяну в яростного монстра. Более того, вскоре обнаруживается, что существуют и другие модифицированные хищники. Пока свежесозданные чудовища превращают в руины Северную Америку, стирая с лица Земли все, что попадается у них на пути, Окойи вместе с опальным генным инженером пытается изобрести антидот, прорываясь по бесконечному полю боя не только, чтобы предотвратить глобальную катастрофу, но и спасти бесстрашное существо, которое когда-то было его другом.

Страна: США
Студия: New Line Cinema
Продолжительность: 01:47:16
Перевод: Дублированный | Лицензия

Качество: BDRip 1080p
Видео: MPEG-4 AVC, 1920x800, 14.0 Мbit/s, 23.976 fps
Звук:
Аудио #01: 48 kHz, AC3, 5.1, 448 Kbps | Дублированный | RUS |
Аудио #02: 48 kHz, AC3, 2.0, 192 Kbps | Дублированный | UKR |
Аудио #03: 48 kHz, AC3, 5.1, 448 Kbps | Оригинал |  ENG |
Субтитры: Русские (forced, full), английские

Релиз: Автор релиза:


[+] MI


Общее
Уникальный идентификатор                 : 278777044407170622658614326945025162269 (0xD1BA8179B1ADFE5703053F3FEFF4FC1D)
Полное имя                               : Rampage.2018.Lic.BDRip.1080p.ExKinoRay.mkv
Формат                                   : Matroska
Версия формата                           : Version 4 / Version 2
Размер файла                             : 11,3 Гбайт
Продолжительность                        : 1 ч. 47 м.
Общий поток                              : 15,1 Мбит/сек
Название фильма                          : Rampage 2018 from ExKinoRay
Дата кодирования                         : UTC 2018-07-10 23:56:27
Программа кодирования                    : mkvmerge v24.0.0 ('Beyond The Pale') 64-bit
Библиотека кодирования                   : libebml v1.3.6 + libmatroska v1.4.9
Обложка                                  : Yes
Attachments                              : cover

Видео
Идентификатор                            : 1
Формат                                   : AVC
Формат/Информация                        : Advanced Video Codec
Профиль формата                          : High@L4.1
Настройки формата                        : CABAC / 4 Ref Frames
Параметр CABAC формата                   : Да
Параметр RefFrames формата               : 4 кадра
Идентификатор кодека                     : V_MPEG4/ISO/AVC
Продолжительность                        : 1 ч. 47 м.
Битрейт                                  : 14,0 Мбит/сек
Ширина                                   : 1920 пикселей
Высота                                   : 800 пикселей
Соотношение сторон                       : 2,40:1
Режим частоты кадров                     : Постоянный
Частота кадров                           : 23,976 (24000/1001) кадра/сек
Цветовое пространство                    : YUV
Субдискретизация насыщенности            : 4:2:0
Битовая глубина                          : 8 бит
Тип развёртки                            : Прогрессивная
Бит/(Пиксели*Кадры)                      : 0.380
Размер потока                            : 10,5 Гбайт (93%)
Библиотека кодирования                   : x264 core 155 r2867+74 66b5600 t_mod_Custom_2 [8-bit@all X86_64]
Настройки программы                      : cabac=1 / ref=4 / deblock=1:-3:-3 / analyse=0x3:0x133 / me=umh / subme=10 / psy=1 / fade_compensate=0.00 / psy_rd=0.95:0.10 / mixed_ref=1 / me_range=48 / chroma_me=1 / trellis=2 / 8x8dct=1 / cqm=0 / deadzone=21,11 / fast_pskip=0 / chroma_qp_offset=-4 / threads=12 / lookahead_threads=2 / sliced_threads=0 / nr=0 / decimate=1 / interlaced=0 / bluray_compat=0 / constrained_intra=0 / fgo=0 / bframes=7 / b_pyramid=2 / b_adapt=2 / b_bias=0 / direct=3 / weightb=1 / open_gop=0 / weightp=2 / keyint=250 / keyint_min=23 / scenecut=40 / intra_refresh=0 / rc_lookahead=30 / rc=2pass / mbtree=0 / bitrate=14000 / ratetol=1.0 / qcomp=0.70 / qpmin=0:0:0 / qpmax=69:69:69 / qpstep=4 / cplxblur=20.0 / qblur=0.5 / vbv_maxrate=35000 / vbv_bufsize=35000 / nal_hrd=none / filler=0 / ip_ratio=1.40 / pb_ratio=1.30 / aq=3:1.00 / aq-sensitivity=10.00 / aq-factor=1.00:1.00:1.00 / aq2=0 / aq3=2:[0.50:0.50]:[0.50:0.50]:[0.50:0.50]:[0.50:0.50] / aq3-sensitivity=10.00 / aq3-factor=[1.00:1.00]:[1.00:1.00]:[1.00:1.00] / aq3-boundary=192:64:24
Язык                                     : English
Default                                  : Да
Forced                                   : Нет

Аудио #1
Идентификатор                            : 2
Формат                                   : AC-3
Формат/Информация                        : Audio Coding 3
Идентификатор кодека                     : A_AC3
Продолжительность                        : 1 ч. 47 м.
Вид битрейта                             : Постоянный
Битрейт                                  : 448 Кбит/сек
Каналы                                   : 6 каналов
Расположение каналов                     : Front: L C R, Side: L R, LFE
Частота                                  : 48,0 КГц
Частота кадров                           : 31,250 кадров/сек (1536 SPF)
Битовая глубина                          : 16 бит
Метод сжатия                             : С потерями
Размер потока                            : 344 Мбайт (3%)
Заголовок                                : Dub [License]
Язык                                     : Russian
Default                                  : Да
Forced                                   : Нет

Аудио #2
Идентификатор                            : 3
Формат                                   : AC-3
Формат/Информация                        : Audio Coding 3
Идентификатор кодека                     : A_AC3
Продолжительность                        : 1 ч. 47 м.
Вид битрейта                             : Постоянный
Битрейт                                  : 192 Кбит/сек
Каналы                                   : 2 канала
Расположение каналов                     : Front: L R
Частота                                  : 48,0 КГц
Частота кадров                           : 31,250 кадров/сек (1536 SPF)
Битовая глубина                          : 16 бит
Метод сжатия                             : С потерями
Размер потока                            : 147 Мбайт (1%)
Заголовок                                : Dub
Язык                                     : Ukrainian
Default                                  : Нет
Forced                                   : Нет

Аудио #3
Идентификатор                            : 4
Формат                                   : AC-3
Формат/Информация                        : Audio Coding 3
Идентификатор кодека                     : A_AC3
Продолжительность                        : 1 ч. 47 м.
Вид битрейта                             : Постоянный
Битрейт                                  : 448 Кбит/сек
Каналы                                   : 6 каналов
Расположение каналов                     : Front: L C R, Side: L R, LFE
Частота                                  : 48,0 КГц
Частота кадров                           : 31,250 кадров/сек (1536 SPF)
Битовая глубина                          : 16 бит
Метод сжатия                             : С потерями
Размер потока                            : 344 Мбайт (3%)
Заголовок                                : Original
Язык                                     : English
ServiceKind                              : Complete Main
Default                                  : Нет
Forced                                   : Нет

Текст #1
Идентификатор                            : 5
Формат                                   : UTF-8
Идентификатор кодека                     : S_TEXT/UTF8
Идентификатор кодека/Информация          : UTF-8 Plain Text
Продолжительность                        : 1 ч. 32 м.
Битрейт                                  : 2 бит/сек
ElementCount                             : 31
Размер потока                            : 1,75 Кбайт (0%)
Заголовок                                : Forced
Язык                                     : Russian
Default                                  : Да
Forced                                   : Да

Текст #2
Идентификатор                            : 6
Формат                                   : UTF-8
Идентификатор кодека                     : S_TEXT/UTF8
Идентификатор кодека/Информация          : UTF-8 Plain Text
Продолжительность                        : 1 ч. 46 м.
Битрейт                                  : 83 бит/сек
ElementCount                             : 1292
Размер потока                            : 65,0 Кбайт (0%)
Заголовок                                : Full
Язык                                     : Russian
Default                                  : Нет
Forced                                   : Нет

Текст #3
Идентификатор                            : 7
Формат                                   : UTF-8
Идентификатор кодека                     : S_TEXT/UTF8
Идентификатор кодека/Информация          : UTF-8 Plain Text
Продолжительность                        : 1 ч. 37 м.
Битрейт                                  : 56 бит/сек
ElementCount                             : 1352
Размер потока                            : 40,6 Кбайт (0%)
Язык                                     : English
Default                                  : Нет
Forced                                   : Нет

Меню
00:00:00.000                             : en:00:00:00.000
00:12:58.528                             : en:00:12:58.528
00:19:56.278                             : en:00:19:56.278
00:29:53.291                             : en:00:29:53.291
00:40:35.391                             : en:00:40:35.391
00:49:10.906                             : en:00:49:10.906
01:02:38.171                             : en:01:02:38.171
01:10:37.650                             : en:01:10:37.650
01:20:10.472                             : en:01:20:10.472
01:29:23.608                             : en:01:29:23.608
01:39:43.186                             : en:01:39:43.186




Скриншоты:
[+] Всего файлов в раздаче - 1:
Rampage.2018.Lic.BDRip.1080p.ExKinoRay.mkv11.30 GB

Текущая раздача:
ДатаКомментарии    РазмерПиры
2018-07-11 U Рэмпейдж / Rampage (2018) BDRip 1080p от ExKinoRay | Лицензия 11.30 GB ↑ 18 ↓ 29

Показать еще раздачи по запросу рэмпейдж:
2018-07-13 U Рэмпейдж / Rampage (2018) BDRip 1080p от Ash61 | 3D-Video | halfOU | Лицензия 9.20 GB ↑ 100 ↓ 76
2018-07-12 U Рэмпейдж / Rampage (2018) HDRip от Scarabey | Лицензия 1.45 GB ↑ 983 ↓ 37
2018-07-12 U Рэмпейдж / Rampage (2018) BDRip от ExKinoRay | Лицензия 1.46 GB ↑ 49 ↓ 11
2018-07-12 U Рэмпейдж / Rampage (2018) BDRip-AVC от HELLYWOOD | Лицензия 1К2.18 GB ↑ 38 ↓ 15
2018-07-11 U Рэмпейдж / Rampage (2018) BDRip-AVC от HELLYWOOD | Лицензия 1К1.46 GB ↑ 68 ↓ 19
2018-07-11 U Рэмпейдж / Rampage (2018) BDRip от GeneralFilm | Лицензия 1.46 GB ↑ 112 ↓ 11
2018-07-11 U Рэмпейдж / Rampage (2018) BDRip 720p от HELLYWOOD | Лицензия 4.36 GB ↑ 126 ↓ 75

Отзывы
Зарегистрируйтесь чтобы добавить комментарий.
Обратная связь
Copyleft ©