↑↓Torrent.by
Поиск
Логин: Регистрация
Пароль: Восстановить пароль
Загрузка...

Третье убийство / Sandome no satsujin (2017) HDRip-AVC от OlLanDGroup | iTunes

Скачать trete-ubiystvo-sandome-no-satsujin-2017-hdrip-avc-ot-ollandgroup-itunes.torrent
U Магнитная ссылка Размер: 1.08 GB Раздают: 18 Качают: 11 Добавлен: 2018-07-11 09:27:10
Третье убийство / Sandome no satsujin (2017) HDRip-AVC от OlLanDGroup | iTunes

Третье убийство / Sandome no satsujin

Год выпуска: 2017
Страна: Япония
Производство: Amuse, Fuji IG Laboratory for Movies, Fuji Television Network
Жанр:  Драма, детектив, криминал

Режиссёр: Хирокадзу Корээда
В ролях: Масахару Фукуяма, Кодзи Якусё, Синносукэ Мицусима, Микако Итикава, Идзуми Мацуока, Исао Хасидзумэ, Судзу Хиросэ, Хадзимэ Иноэ, Адзю Макита, Итиро Огура

Перевод: Профессиональный многоголосый | iTunes
Субтитры: Русские (полные), Английские (полные)
Реклама: Отсутствует

Описание: Совершено дерзкое убийство. Злодей схвачен и предстает перед судом. 30 лет назад этот человек по имени Мисуми уже совершал аналогичное преступление, и теперь ему грозит смертная казнь. Защищать обвиняемого берутся адвокаты во главе с молодым юристом Сигэмори. Несмотря на то, что его клиент признал свою вину, Сигэмори пытается найти смягчающие обстоятельства. Чем глубже он проникает в суть дела, тем более противоречивым оно становится. Показания жены и дочери убитого полны недомолвок, тогда как общение с подзащитным заставляет Сигэмори испытывать к нему странную, почти мистическую симпатию. Постепенно он все больше проникается мыслью, что Мисуми никакой не убийца.

Качество: BDRip-AVC
Продолжительность: 02:04:35

Формат: MKV
Видео кодек: MPEG-4 AVC
Аудио кодек: AC3
Видео: 1024x428 (2.40:1), 23,976 fps, x264 ~857 kbps avg, 0.082 bit/pixel
Аудио: 48 kHz, AC3 Dolby Digital, 3/2 (L,C,R,l,r) + LFE ch, ~384.00 kbps avg | RUS (iTunes)

Дата премьеры (мир): 5 сентября 2017
Дата премьеры (РФ): 17 мая 2018, «Русский Репортаж»

Релиз: Rip by:


[+] MediaInfo

Общее
Уникальный идентификатор                 : 180444995495002519109613386767565130259 (0x87C07127D21480C491D448571C990A13)
Полное имя                               : F:OlLanDGroupThe.Third.Murder.2017.BDRip(AVC).OlLanDGroup.mkv
Формат                                   : Matroska
Версия формата                           : Version 4 / Version 2
Размер файла                             : 1,08 Гбайт
Продолжительность                        : 2 ч. 4 м.
Общий поток                              : 1243 Кбит/сек
Название фильма                          : The.Third.Murder.2017   #TorpedoUK#
Дата кодирования                         : UTC 2018-07-11 01:35:29
Программа кодирования                    : mkvmerge v8.3.0 ('Over the Horizon') 64bit
Библиотека кодирования                   : libebml v1.3.1 + libmatroska v1.4.2

Видео
Идентификатор                            : 1
Формат                                   : AVC
Формат/Информация                        : Advanced Video Codec
Профиль формата                          : High@L4.1
Параметр CABAC формата                   : Да
Параметр ReFrames формата                : 10 кадров
Идентификатор кодека                     : V_MPEG4/ISO/AVC
Продолжительность                        : 2 ч. 4 м.
Битрейт                                  : 857 Кбит/сек
Ширина                                   : 1024 пикселя
Высота                                   : 428 пикселей
Соотношение сторон                       : 2,40:1
Режим частоты кадров                     : Постоянный
Частота кадров                           : 23,976 (24000/1001) кадра/сек
Цветовое пространство                    : YUV
Субдискретизация насыщенности            : 4:2:0
Битовая глубина                          : 8 бит
Тип развёртки                            : Прогрессивная
Бит/(Пиксели*Кадры)                      : 0.082
Размер потока                            : 764 Мбайт (69%)
Библиотека кодирования                   : x264 core 146 r2538 121396c
Настройки программы                      : cabac=1 / ref=10 / deblock=1:-3:-3 / analyse=0x3:0x113 / me=umh / subme=11 / psy=1 / psy_rd=0.98:0.04 / mixed_ref=1 / me_range=48 / chroma_me=1 / trellis=2 / 8x8dct=1 / cqm=0 / deadzone=21,11 / fast_pskip=1 / chroma_qp_offset=-3 / threads=6 / lookahead_threads=1 / sliced_threads=0 / nr=0 / decimate=1 / interlaced=0 / bluray_compat=0 / constrained_intra=0 / bframes=10 / b_pyramid=2 / b_adapt=2 / b_bias=0 / direct=3 / weightb=1 / open_gop=0 / weightp=2 / keyint=240 / keyint_min=23 / scenecut=40 / intra_refresh=0 / rc_lookahead=40 / rc=2pass / mbtree=1 / bitrate=857 / ratetol=1.0 / qcomp=0.60 / qpmin=0 / qpmax=69 / qpstep=4 / cplxblur=20.0 / qblur=0.5 / vbv_maxrate=50000 / vbv_bufsize=62500 / nal_hrd=none / filler=0 / ip_ratio=1.40 / aq=1:1.00
Язык                                     : English
Default                                  : Да
Forced                                   : Нет

Аудио
Идентификатор                            : 2
Формат                                   : AC-3
Формат/Информация                        : Audio Coding 3
Расширение режима                        : CM (complete main)
Параметр Endianness формата              : Big
Идентификатор кодека                     : A_AC3
Продолжительность                        : 2 ч. 4 м.
Вид битрейта                             : Постоянный
Битрейт                                  : 384 Кбит/сек
Каналы                                   : 6 каналов
Расположение каналов                     : Front: L C R, Side: L R, LFE
Частота                                  : 48,0 КГц
Частота кадров                           : 31,250 кадров/сек (1536 spf)
Битовая глубина                          : 16 бит
Метод сжатия                             : С потерями
Размер потока                            : 342 Мбайт (31%)
Заголовок                                : iTunes
Язык                                     : Russian
Default                                  : Да
Forced                                   : Нет

Текст #1
Идентификатор                            : 3
Формат                                   : UTF-8
Идентификатор кодека                     : S_TEXT/UTF8
Идентификатор кодека/Информация          : UTF-8 Plain Text
Продолжительность                        : 1 ч. 57 м.
Битрейт                                  : 80 бит/сек
Count of elements                        : 1426
Размер потока                            : 69,8 Кбайт (0%)
Заголовок                                : Full
Язык                                     : Russian
Default                                  : Нет
Forced                                   : Нет

Текст #2
Идентификатор                            : 4
Формат                                   : UTF-8
Идентификатор кодека                     : S_TEXT/UTF8
Идентификатор кодека/Информация          : UTF-8 Plain Text
Продолжительность                        : 1 ч. 57 м.
Битрейт                                  : 45 бит/сек
Count of elements                        : 1462
Размер потока                            : 39,1 Кбайт (0%)
Заголовок                                : Full
Язык                                     : English
Default                                  : Нет
Forced                                   : Нет

Меню
00:00:00.000                             : en:00:00:00.000
00:03:28.542                             : en:00:03:28.542
00:09:01.040                             : en:00:09:01.040
00:13:25.638                             : en:00:13:25.638
00:18:26.939                             : en:00:18:26.939
00:22:33.561                             : en:00:22:33.561
00:27:56.133                             : en:00:27:56.133
00:33:26.546                             : en:00:33:26.546
00:42:03.354                             : en:00:42:03.354
00:46:08.641                             : en:00:46:08.641
00:52:53.712                             : en:00:52:53.712
00:57:30.864                             : en:00:57:30.864
01:07:55.029                             : en:01:07:55.029
01:13:02.503                             : en:01:13:02.503
01:17:25.182                             : en:01:17:25.182
01:26:20.509                             : en:01:26:20.509
01:39:42.476                             : en:01:39:42.476
01:48:06.355                             : en:01:48:06.355
01:54:45.045                             : en:01:54:45.045
02:00:32.225                             : en:02:00:32.225



Скриншоты:
[+] Всего файлов в раздаче - 1:
The.Third.Murder.2017.BDRip(AVC).OlLanDGroup.mkv1.08 GB

Текущая раздача:
ДатаКомментарии    РазмерПиры
2018-07-11 U Третье убийство / Sandome no satsujin (2017) HDRip-AVC от OlLanDGroup | iTunes 1.08 GB ↑ 18 ↓ 11

Похожие раздачи по запросу - третье:
2018-07-11 U Третье убийство / Sandome no satsujin (2017) WEB-DLRip-AVC от KinoHitHD | iTunes 1.98 GB ↑ 56 ↓ 17
2018-07-11 U Третье убийство / Sandome no satsujin (2017) BDRip 1080p | iTunes 9.33 GB ↑ 35 ↓ 37
2018-07-11 U Третье убийство / Sandome no satsujin (2017) HDRip от MegaPeer | iTunes 1.46 GB ↑ 85 ↓ 38
2018-07-10 U Третье убийство / Sandome no satsujin (2017) WEB-DL 1080p | P 4.78 GB ↑ 53 ↓ 33
2018-05-17 U Третье убийство / Sandome no satsujin (2017) HDRip | GreenРай Studio 1.37 GB ↑ 172 ↓ 38

Отзывы
Зарегистрируйтесь чтобы добавить комментарий.
Обратная связь
Copyleft ©