↑↓Torrent.by
Поиск
Логин: Регистрация
Пароль: Восстановить пароль
Загрузка...

Рэмпейдж / Rampage (2018) BDRip 1080p от OlLanDGroup | Лицензия

Скачать rempeydzh-rampage-2018-bdrip-1080p-ot-ollandgroup-licenziya.torrent
U Магнитная ссылка Размер: 11.13 GB Раздают: 26 Качают: 20 Добавлен: 2018-07-11 11:14:53
Рэмпейдж / Rampage (2018) BDRip 1080p от OlLanDGroup | Лицензия

Название: Рэмпейдж
Оригинальное название: Rampage
Год выпуска: 2018
Жанр:  Фантастика, фэнтези, боевик, приключения
Выпущено: США, New Line Cinema
Режиссер: Брэд Пейтон
В ролях: Дуэйн Джонсон, Джеффри Дин Морган, Малин Акерман, Джо Манганьелло, Марли Шелтон, Уилл Юн Ли, Наоми Харрис, Джек Куэйд, Джейк Лэси, Бриэнн Хилл

О фильме: Приматолог Дэвис Окойи предпочитает держаться подальше от людей и дружит с Джорджем, удивительно умным альфа-самцом - гориллой, которого он воспитывал с самого рождения. Но вышедший из-под контроля генетический эксперимент превращает послушную обезьяну в яростного монстра. Более того, вскоре обнаруживается, что существуют и другие модифицированные хищники. Пока свежесозданные чудовища превращают в руины Северную Америку, стирая с лица Земли все, что попадается у них на пути, Окойи вместе с опальным генным инженером пытается изобрести антидот, прорываясь по бесконечному полю боя не только, чтобы предотвратить глобальную катастрофу, но и спасти бесстрашное существо, которое когда-то было его другом.

Качество: BDRip (1080p)
Видео: MPEG-4 AVC, 12704 Kбит/с, 1920x800, 23/976 кадр/с
Аудио: Русский (AC3, 6 сh, 448 Кбит/с), украинский (AC3, 2 сh, 192 Кбит/с), английский (DTS, 6 сh, 1509 Кбит/с)
Размер: 11.13 ГБ
Продолжительность: 01:47:16
Перевод: Дублированный
Субтитры: Русские, английские

Озвучивание - (Лицензия)
Сохранены оригинальные чаптеры как на Blu-Ray.

Релиз:  Rip by:


[+] x264

x264 [info]: frame I:1166  Avg QP:16.16  size:241402
x264 [info]: frame P:39708 Avg QP:18.43  size:100521
x264 [info]: frame B:113438 Avg QP:20.38  size: 52413
x264 [info]: consecutive B-frames:  4.4%  6.0% 15.2% 15.4% 14.6% 39.2%  3.5%  0.6%  0.4%  0.4%  0.3%
x264 [info]: mb I  I16..4: 13.8% 71.8% 14.4%
x264 [info]: mb P  I16..4:  2.1% 33.1%  1.6%  P16..4: 23.9% 26.1%  7.0%  0.8%  0.0%    skip: 5.4%
x264 [info]: mb B  I16..4:  0.5%  5.9%  0.2%  B16..8: 38.6% 20.8%  3.2%  direct: 9.6%  skip:21.2%  L0:43.4% L1:44.3% BI:12.3%
x264 [info]: 8x8 transform intra:88.8% inter:56.4%
x264 [info]: direct mvs  spatial:98.1% temporal:1.9%
x264 [info]: coded y,uvDC,uvAC intra: 90.9% 89.5% 76.0% inter: 46.0% 40.1% 15.3%
x264 [info]: i16 v,h,dc,p: 45% 10% 11% 33%
x264 [info]: i8 v,h,dc,ddl,ddr,vr,hd,vl,hu:  8%  6% 15% 10% 13% 12% 11% 12% 12%
x264 [info]: i4 v,h,dc,ddl,ddr,vr,hd,vl,hu: 13%  8% 19%  7% 11% 11% 11%  9% 11%
x264 [info]: i8c dc,h,v,p: 54% 17% 16% 13%
x264 [info]: Weighted P-Frames: Y:2.1% UV:0.9%
x264 [info]: ref P L0: 49.0% 11.4% 23.2%  8.0%  7.1%  1.4%  0.0%
x264 [info]: ref B L0: 78.1% 15.9%  4.7%  1.3%
x264 [info]: ref B L1: 92.9%  7.1%
x264 [info]: kb/s:12701.56



[+] Инфо-файл


Общее
Уникальный идентификатор                 : 180813467893647173511963923334055374539 (0x8807683F56F84589B2B6E3D8CED0AECB)
Полное имя                               : D:ЗагрузкиRampage.2018.x264.BDRip.(1080p).OlLanDGroup.mkv
Формат                                   : Matroska
Версия формата                           : Version 4 / Version 2
Размер файла                             : 11,1 Гбайт
Продолжительность                        : 1 ч. 47 м.
Общий поток                              : 14,9 Мбит/сек
Название фильма                          : Рэмпейдж.2018.Rip by: ollan
Дата кодирования                         : UTC 2018-07-10 20:15:49
Программа кодирования                    : mkvmerge v6.5.0 ('Isn't she lovely') built on Oct 20 2013 12:50:05
Библиотека кодирования                   : libebml v1.3.0 + libmatroska v1.4.1
Attachements                             : Cover - Rampage.png

Видео
Идентификатор                            : 1
Формат                                   : AVC
Формат/Информация                        : Advanced Video Codec
Профиль формата                          : High@L4.1
Параметр CABAC формата                   : Да
Параметр RefFrames формата               : 5 кадров
Идентификатор кодека                     : V_MPEG4/ISO/AVC
Продолжительность                        : 1 ч. 47 м.
Битрейт                                  : 12,7 Мбит/сек
Ширина                                   : 1920 пикселей
Высота                                   : 800 пикселей
Соотношение сторон                       : 2,40:1
Режим частоты кадров                     : Постоянный
Частота кадров                           : 23,976 (24000/1001) кадра/сек
Цветовое пространство                    : YUV
Субдискретизация насыщенности            : 4:2:0
Битовая глубина                          : 8 бит
Тип развёртки                            : Прогрессивная
Бит/(Пиксели*Кадры)                      : 0.345
Размер потока                            : 9,30 Гбайт (84%)
Библиотека кодирования                   : x264 core 146 r2538 121396c
Настройки программы                      : cabac=1 / ref=5 / deblock=1:-3:-3 / analyse=0x3:0x133 / me=umh / subme=11 / psy=1 / psy_rd=0.95:0.05 / mixed_ref=1 / me_range=64 / chroma_me=1 / trellis=2 / 8x8dct=1 / cqm=0 / deadzone=21,11 / fast_pskip=0 / chroma_qp_offset=-3 / threads=12 / lookahead_threads=3 / sliced_threads=0 / nr=0 / decimate=0 / interlaced=0 / bluray_compat=0 / constrained_intra=0 / bframes=10 / b_pyramid=2 / b_adapt=2 / b_bias=0 / direct=3 / weightb=1 / open_gop=0 / weightp=2 / keyint=240 / keyint_min=23 / scenecut=40 / intra_refresh=0 / rc_lookahead=40 / rc=2pass / mbtree=0 / bitrate=12704 / ratetol=1.0 / qcomp=0.60 / qpmin=0 / qpmax=69 / qpstep=4 / cplxblur=20.0 / qblur=0.5 / vbv_maxrate=50000 / vbv_bufsize=62500 / nal_hrd=none / filler=0 / ip_ratio=1.40 / pb_ratio=1.30 / aq=1:1.00
Язык                                     : English
Default                                  : Да
Forced                                   : Нет

Аудио #1
Идентификатор                            : 2
Формат                                   : AC-3
Формат/Информация                        : Audio Coding 3
Расширение режима                        : CM (complete main)
Параметр Endianness формата              : Big
Идентификатор кодека                     : A_AC3
Продолжительность                        : 1 ч. 47 м.
Вид битрейта                             : Постоянный
Битрейт                                  : 448 Кбит/сек
Каналы                                   : 6 каналов
Расположение каналов                     : Front: L C R, Side: L R, LFE
Частота                                  : 48,0 КГц
Частота кадров                           : 31,250 кадров/сек (1536 spf)
Метод сжатия                             : С потерями
Размер потока                            : 344 Мбайт (3%)
Заголовок                                : Дублированный (Лицензия)
Язык                                     : Russian
Default                                  : Да
Forced                                   : Нет

Аудио #2
Идентификатор                            : 3
Формат                                   : AC-3
Формат/Информация                        : Audio Coding 3
Расширение режима                        : CM (complete main)
Параметр Endianness формата              : Big
Идентификатор кодека                     : A_AC3
Продолжительность                        : 1 ч. 47 м.
Вид битрейта                             : Постоянный
Битрейт                                  : 192 Кбит/сек
Каналы                                   : 2 канала
Расположение каналов                     : Front: L R
Частота                                  : 48,0 КГц
Частота кадров                           : 31,250 кадров/сек (1536 spf)
Метод сжатия                             : С потерями
Размер потока                            : 147 Мбайт (1%)
Заголовок                                : Дублированный
Язык                                     : Ukrainian
Default                                  : Нет
Forced                                   : Нет

Аудио #3
Идентификатор                            : 4
Формат                                   : DTS
Формат/Информация                        : Digital Theater Systems
Режим                                    : 16
Параметр Endianness формата              : Big
Идентификатор кодека                     : A_DTS
Продолжительность                        : 1 ч. 47 м.
Вид битрейта                             : Постоянный
Битрейт                                  : 1509 Кбит/сек
Каналы                                   : 6 каналов
Расположение каналов                     : Front: L C R, Side: L R, LFE
Частота                                  : 48,0 КГц
Частота кадров                           : 93,750 кадра/сек (512 spf)
Битовая глубина                          : 24 бит
Метод сжатия                             : С потерями
Размер потока                            : 1,13 Гбайт (10%)
Язык                                     : English
Default                                  : Нет
Forced                                   : Нет

Текст #1
Идентификатор                            : 5
Формат                                   : UTF-8
Идентификатор кодека                     : S_TEXT/UTF8
Идентификатор кодека/Информация          : UTF-8 Plain Text
Заголовок                                : Forced
Язык                                     : Russian
Default                                  : Да
Forced                                   : Да

Текст #2
Идентификатор                            : 6
Формат                                   : UTF-8
Идентификатор кодека                     : S_TEXT/UTF8
Идентификатор кодека/Информация          : UTF-8 Plain Text
Заголовок                                : Full
Язык                                     : Russian
Default                                  : Нет
Forced                                   : Нет

Текст #3
Идентификатор                            : 7
Формат                                   : UTF-8
Идентификатор кодека                     : S_TEXT/UTF8
Идентификатор кодека/Информация          : UTF-8 Plain Text
Язык                                     : English
Default                                  : Нет
Forced                                   : Нет

Меню
00:00:00.000                             : en:Chapter 01
00:12:58.528                             : en:Chapter 02
00:19:56.278                             : en:Chapter 03
00:29:53.290                             : en:Chapter 04
00:40:35.391                             : en:Chapter 05
00:49:10.905                             : en:Chapter 06
01:02:38.170                             : en:Chapter 07
01:10:37.649                             : en:Chapter 08
01:20:10.470                             : en:Chapter 09
01:29:23.608                             : en:Chapter 10
01:39:43.185                             : en:Chapter 11




Скриншоты:
[+] Всего файлов в раздаче - 1:
Rampage.2018.x264.BDRip.(1080p).OlLanDGroup.mkv11.13 GB

Текущая раздача:
ДатаКомментарии    РазмерПиры
2018-07-11 U Рэмпейдж / Rampage (2018) BDRip 1080p от OlLanDGroup | Лицензия 11.13 GB ↑ 26 ↓ 20

Показать еще раздачи по запросу рэмпейдж:
2018-07-13 U Рэмпейдж / Rampage (2018) BDRip 1080p от Ash61 | 3D-Video | halfOU | Лицензия 9.20 GB ↑ 100 ↓ 76
2018-07-12 U Рэмпейдж / Rampage (2018) HDRip от Scarabey | Лицензия 1.45 GB ↑ 983 ↓ 37
2018-07-12 U Рэмпейдж / Rampage (2018) BDRip от ExKinoRay | Лицензия 1.46 GB ↑ 49 ↓ 11
2018-07-12 U Рэмпейдж / Rampage (2018) BDRip-AVC от HELLYWOOD | Лицензия 1К2.18 GB ↑ 38 ↓ 15
2018-07-11 U Рэмпейдж / Rampage (2018) BDRip-AVC от HELLYWOOD | Лицензия 1К1.46 GB ↑ 68 ↓ 19
2018-07-11 U Рэмпейдж / Rampage (2018) BDRip от GeneralFilm | Лицензия 1.46 GB ↑ 112 ↓ 11
2018-07-11 U Рэмпейдж / Rampage (2018) BDRip 720p от HELLYWOOD | Лицензия 4.36 GB ↑ 126 ↓ 75

Отзывы
Зарегистрируйтесь чтобы добавить комментарий.
Обратная связь
Copyleft ©