↑↓Torrent.by
Поиск
Логин: Регистрация
Пароль: Восстановить пароль
Загрузка...

Долина теней / Skyggenes dal / Valley of Shadows (2017) HDRip 1080p | GreenРай Studio

Скачать dolina-teney-skyggenes-dal-valley-of-shadows-2017-hdrip-1080p-greenray-studio.torrent
U Магнитная ссылка Размер: 6.50 GB Раздают: 26 Качают: 16 Добавлен: 2018-07-11 11:15:49
Долина теней / Skyggenes dal / Valley of Shadows (2017) HDRip 1080p | GreenРай Studio

Год выхода: 2017
Наименование: Долина теней
Оригинальное наименование: Valley of Shadows
Страна: Норвегия
Жанр:  ужасы
Режиссер постановщик: Джонас Мацов Гульбрандсен
В главных ролях: Адам Екели, Катрине Фагерланд, Джон Хоп Ларсен, Леннард Саламон

О фильме: Шестилетний Аслак живёт со своей матерью в небольшой деревушке, расположенной между морем и горами Норвегии. Однажды рядом с деревней обнаруживают растерзанных овец. Взрослая часть населения полагает, что это были волки, однако Аслак уверен, что в лесу живёт оборотень. И после того, как бесследно пропадает пёс Аслака, он, не раздумывая, отправляется в лес.

Файл
Качество: HDRip 1080p
Видео данные: MKV, 1920x1080 (16:9), 23.976 fps, 9287 Кбит/с
Аудио данные: AC3, 2 ch, 640 Кбит/с
Перевод: Любительский многоголосый (GreenРай Studio)
Субтитры: английские (хардсаб)
Продолжительность: 01:31:52

Внимание, имеется  видео и аудио реклама от спонсора показа

Релиз:


[+] Медиаинфо
General
Unique ID                                : 183998862014764833759031566638924809199 (0x8A6CE44D93E130E9900F95E037F9C3EF)
Complete name                            : E:ГРИНРАЙSkyggenes.dal.2017.P.BDRip.1080p.mkv
Format                                   : Matroska
Format version                           : Version 4 / Version 2
File size                                : 6.50 GiB
Duration                                 : 1 h 31 min
Overall bit rate mode                    : Constant
Overall bit rate                         : 10.1 Mb/s
Encoded date                             : UTC 2018-07-10 12:57:50
Writing application                      : mkvmerge v6.5.0 ('Isn't she lovely') built on Oct 20 2013 12:50:05
Writing library                          : libebml v1.3.0 + libmatroska v1.4.1

Video
ID                                       : 1
Format                                   : AVC
Format/Info                              : Advanced Video Codec
Format profile                           : Main@L4
Format settings                          : CABAC / 3 Ref Frames
Format settings, CABAC                   : Yes
Format settings, RefFrames               : 3 frames
Format settings, GOP                     : M=1, N=15
Codec ID                                 : V_MPEG4/ISO/AVC
Duration                                 : 1 h 31 min
Bit rate mode                            : Constant
Bit rate                                 : 9 287 kb/s
Nominal bit rate                         : 10 000 kb/s
Width                                    : 1 920 pixels
Height                                   : 1 080 pixels
Display aspect ratio                     : 16:9
Frame rate mode                          : Constant
Frame rate                               : 23.976 (24000/1001) FPS
Standard                                 : NTSC
Color space                              : YUV
Chroma subsampling                       : 4:2:0
Bit depth                                : 8 bits
Scan type                                : Progressive
Bits/(Pixel*Frame)                       : 0.187
Stream size                              : 5.96 GiB (92%)
Language                                 : English
Default                                  : Yes
Forced                                   : No
Color range                              : Limited

Audio
ID                                       : 2
Format                                   : AC-3
Format/Info                              : Audio Coding 3
Codec ID                                 : A_AC3
Duration                                 : 1 h 31 min
Bit rate mode                            : Constant
Bit rate                                 : 640 kb/s
Channel(s)                               : 2 channels
Channel positions                        : Front: L R
Sampling rate                            : 48.0 kHz
Frame rate                               : 31.250 FPS (1536 SPF)
Bit depth                                : 16 bits
Compression mode                         : Lossy
Stream size                              : 421 MiB (6%)
Service kind                             : Complete Main
Default                                  : Yes
Forced                                   : No



Скриншоты:
[+] Всего файлов в раздаче - 1:
Skyggenes.dal.2017.P.BDRip.1080p.mkv6.50 GB

Текущая раздача:
ДатаКомментарии    РазмерПиры
2018-07-11 U Долина теней / Skyggenes dal / Valley of Shadows (2017) HDRip 1080p | GreenРай Studio 6.50 GB ↑ 26 ↓ 16

Показать еще раздачи по запросу долина:
2018-07-11 U Долина теней / Skyggenes dal / Valley of Shadows (2017) HDRip 720p | GreenРай Studio 3.25 GB ↑ 91 ↓ 25
2018-07-11 U Долина теней / Skyggenes dal / Valley of Shadows (2017) HDRip | GreenРай Studio 1.37 GB ↑ 45 ↓ 29
2018-03-26 U Кремниевая долина / Silicon Valley [05x01 из 10] (2018) WEB-DL 720p | Amedia 654.48 MB ↑ 83 ↓ 13
2018-03-17 U Долина теней / Skyggenes dal / Valley of Shadows (2017) WEB-DLRip | GreenРай Studio 1.36 GB ↑ 91 ↓ 30
2018-03-17 U Долина теней / Skyggenes dal / Valley of Shadows (2017) WEB-DLRip 1080p | GreenРай Studio 2.63 GB ↑ 92 ↓ 41
2018-03-04 U Долина костей / Valley of Bones (2017) WEBRip 720p | GreenРай Studio 2.68 GB ↑ 82 ↓ 21
2018-03-02 U Долина теней / Valley of Shadows / Skyggenes dal (2017) WEBRip | L1 1.17 GB ↑ 79 ↓ 19

Отзывы
Зарегистрируйтесь чтобы добавить комментарий.
Обратная связь
Copyleft ©