↑↓Torrent.by
Поиск
Логин: Регистрация
Пароль: Восстановить пароль
Загрузка...

Рэмпейдж / Rampage (2018) BDRip 1080p от qqss44 & MegaPeer | Лицензия

Скачать rempeydzh-rampage-2018-bdrip-1080p-ot-qqss44-megapeer-licenziya.torrent
U Магнитная ссылка Размер: 7.60 GB Раздают: 240 Качают: 136 Добавлен: 2018-07-11 20:51:43
Рэмпейдж / Rampage (2018) BDRip 1080p от qqss44 & MegaPeer | Лицензия

Анонсы 1080p от qqss44

Название: Рэмпейдж
Оригинальное название: Rampage
Год выхода: 2018
Жанр: фантастика, боевик, приключения
Режиссер: Брэд Пейтон
В ролях: Дуэйн Джонсон, Наоми Харрис, Малин Акерман, Джеффри Дин Морган, Джейк Лэси, Джо Манганьелло, Марли Шелтон, П.Дж. Бирн, Деметриус Гросс, Джек Куэйд

Опсиание:
Приматолог Дэвис Окойи предпочитает держаться подальше от людей и дружит с Джорджем, удивительно умным самцом гориллы, которого он воспитывал с самого рождения. Но вышедший из-под контроля генетический эксперимент превращает послушную обезьяну в яростного монстра. Более того, вскоре обнаруживается, что существуют и другие модифицированные хищники. Пока свежесозданные чудовища превращают в руины Северную Америку, стирая с лица Земли все, что попадается у них на пути, Окойи вместе с опальным генным инженером пытается изобрести антидот, прорываясь по бесконечному полю боя не только, чтобы предотвратить глобальную катастрофу, но и спасти бесстрашное существо, которое когда-то было его другом.

Страна: США
Студия: New Line Cinema
Продолжительность: 01:47:16
Перевод: Дублированный | Лицензия BD EUR

Файл
Формат: MKV, BDRip 1080p
Видео: MPEG-4 AVC, 9700 Кбит/с, 1920x800
Aудио#1: [RUS] AC3 | 48 KHz | 5.1 (Front: L С R Side: L R) + LFE | ~448 kbps
Субтитры: русские форсированные (стилизованные, анимированные, вшиты в видео)
Релиз от:


[+] МИ

Общее
Уникальный идентификатор                 : 190901941308402238715586443088019024847 (0x8F9E6063A9F64D218C4D612855676BCF)
Полное имя                               : H:Rampage.(2018).BDRip-1080p.MegaPeer.(qqss44).mkv
Формат                                   : Matroska
Версия формата                           : Version 2
Размер файла                             : 7,60 Гбайт
Продолжительность                        : 1 ч. 47 м.
Общий поток                              : 10,1 Мбит/сек
Название фильма                          : Rampage.(2018).BDRip-1080p.MegaPeer.(qqss44)
Дата кодирования                         : UTC 2018-07-11 09:15:55
Программа кодирования                    : mkvmerge v5.8.0 ('No Sleep / Pillow') built on Sep  2 2012 15:37:04
Библиотека кодирования                   : libebml v1.2.3 + libmatroska v1.3.0

Видео
Идентификатор                            : 1
Формат                                   : AVC
Формат/Информация                        : Advanced Video Codec
Профиль формата                          : High@L4.1
Параметр CABAC формата                   : Да
Параметр ReFrames формата                : 5 кадров
Идентификатор кодека                     : V_MPEG4/ISO/AVC
Продолжительность                        : 1 ч. 47 м.
Битрейт                                  : 9700 Кбит/сек
Ширина                                   : 1920 пикселей
Высота                                   : 800 пикселей
Соотношение сторон                       : 2,40:1
Режим частоты кадров                     : Постоянный
Частота кадров                           : 23,976 (24000/1001) кадра/сек
Цветовое пространство                    : YUV
Субдискретизация насыщенности            : 4:2:0
Битовая глубина                          : 8 бит
Тип развёртки                            : Прогрессивная
Бит/(Пиксели*Кадры)                      : 0.263
Размер потока                            : 7,11 Гбайт (94%)
Библиотека кодирования                   : x264 core 152 r2851 ba24899
Настройки программы                      : cabac=1 / ref=5 / deblock=1:-3:-3 / analyse=0x3:0x113 / me=umh / subme=11 / psy=1 / psy_rd=1.00:0.00 / mixed_ref=1 / me_range=32 / chroma_me=1 / trellis=2 / 8x8dct=1 / cqm=0 / deadzone=21,11 / fast_pskip=0 / chroma_qp_offset=-2 / threads=12 / lookahead_threads=2 / sliced_threads=0 / nr=0 / decimate=0 / interlaced=0 / bluray_compat=0 / constrained_intra=0 / bframes=8 / b_pyramid=2 / b_adapt=2 / b_bias=0 / direct=3 / weightb=1 / open_gop=0 / weightp=2 / keyint=250 / keyint_min=23 / scenecut=40 / intra_refresh=0 / rc_lookahead=40 / rc=2pass / mbtree=0 / bitrate=9700 / ratetol=1.0 / qcomp=0.70 / qpmin=0 / qpmax=69 / qpstep=4 / cplxblur=20.0 / qblur=0.5 / vbv_maxrate=50000 / vbv_bufsize=62500 / nal_hrd=none / filler=0 / ip_ratio=1.40 / pb_ratio=1.30 / aq=3:0.70
Язык                                     : English
Default                                  : Да
Forced                                   : Нет

Аудио
Идентификатор                            : 2
Формат                                   : AC-3
Формат/Информация                        : Audio Coding 3
Расширение режима                        : CM (complete main)
Параметр Endianness формата              : Big
Идентификатор кодека                     : A_AC3
Продолжительность                        : 1 ч. 47 м.
Вид битрейта                             : Постоянный
Битрейт                                  : 448 Кбит/сек
Каналы                                   : 6 каналов
Расположение каналов                     : Front: L C R, Side: L R, LFE
Частота                                  : 48,0 КГц
Частота кадров                           : 31,250 кадров/сек (1536 spf)
Метод сжатия                             : С потерями
Размер потока                            : 344 Мбайт (4%)
Язык                                     : Russian
Default                                  : Да
Forced                                   : Нет

Меню
00:00:00.000                             : en:00:00:00.000
00:12:58.528                             : en:00:12:58.528
00:19:56.278                             : en:00:19:56.278
00:29:53.291                             : en:00:29:53.291
00:40:35.391                             : en:00:40:35.391
00:49:10.906                             : en:00:49:10.906
01:02:38.171                             : en:01:02:38.171
01:10:37.650                             : en:01:10:37.650
01:20:10.472                             : en:01:20:10.472
01:29:23.608                             : en:01:29:23.608
01:39:43.186                             : en:01:39:43.186




Скриншоты:
[+] Всего файлов в раздаче - 1:
Rampage.(2018).BDRip-1080p.MegaPeer.(qqss44).mkv7.60 GB

Текущая раздача:
ДатаКомментарии    РазмерПиры
2018-07-11 U Рэмпейдж / Rampage (2018) BDRip 1080p от qqss44 & MegaPeer | Лицензия 7.60 GB ↑ 240 ↓ 136

Показать еще раздачи по запросу рэмпейдж:
2018-07-13 U Рэмпейдж / Rampage (2018) BDRip 1080p от Ash61 | 3D-Video | halfOU | Лицензия 9.20 GB ↑ 159 ↓ 77
2018-07-12 U Рэмпейдж / Rampage (2018) HDRip от Scarabey | Лицензия 1.45 GB ↑ 1036 ↓ 56
2018-07-12 U Рэмпейдж / Rampage (2018) BDRip от ExKinoRay | Лицензия 1.46 GB ↑ 52 ↓ 13
2018-07-12 U Рэмпейдж / Rampage (2018) BDRip-AVC от HELLYWOOD | Лицензия 1К2.18 GB ↑ 55 ↓ 25
2018-07-11 U Рэмпейдж / Rampage (2018) BDRip-AVC от HELLYWOOD | Лицензия 1К1.46 GB ↑ 85 ↓ 21
2018-07-11 U Рэмпейдж / Rampage (2018) BDRip от GeneralFilm | Лицензия 1.46 GB ↑ 120 ↓ 13
2018-07-11 U Рэмпейдж / Rampage (2018) BDRip 720p от HELLYWOOD | Лицензия 4.36 GB ↑ 126 ↓ 79

Отзывы
Зарегистрируйтесь чтобы добавить комментарий.
Обратная связь
Copyleft ©