↑↓Torrent.by
Поиск
Логин: Регистрация
Пароль: Восстановить пароль
Загрузка...

Атлантический рубеж 2 / Atlantic Rim: Resurrection (2018) HDRip 720p | GreenРай Studio

Скачать atlanticheskiy-rubezh-2-atlantic-rim-resurrection-2018-hdrip-720p-greenray-studio.torrent
U Магнитная ссылка Размер: 4.93 GB Раздают: 96 Качают: 48 Добавлен: 2018-07-11 20:51:58
Атлантический рубеж 2 / Atlantic Rim: Resurrection (2018) HDRip 720p | GreenРай Studio

Год выхода: 2018
Наименование: Атлантический рубеж 2
Оригинальное наименование: Atlantic Rim: Resurrection
Страна: США
Жанр:  фантастика, боевик
Режиссер постановщик: Джаред Кон
В главных ролях: Стив Ричард Харрис, Хави Израэль, Дженна Эннс, Терри Вудберри, Пол Логан, Линдсей Илстон, Майкл Марсель, Йос Дикон, Ричард Ликок, Сэмм Вичек

О фильме: На Лос-Анджелес нападают гигантские монстры - на этот раз люди более подготовлены и лучше вооружены, но и пришельцы тоже...

Файл
Качество: HDRip 720p
Видео данные: MKV, 1280x720 (16:9), 23.976 fps, 7508 Кбит/с
Аудио данные: AC3, 2 ch, 640 Кбит/с
Перевод: Любительский многоголосый (GreenРай Studio)
Продолжительность: 01:26:41

Внимание, имеется  видео и аудио реклама от спонсора показа

Релиз:


[+] Медиаинфо
General
Unique ID                                : 171794338847974792864118654424223392769 (0x813E62DA7CC23019A1417BAA4D5D2401)
Complete name                            : E:ГРИНРАЙAtlantic.Rim.2.2018.P.BDRip.720p.mkv
Format                                   : Matroska
Format version                           : Version 4 / Version 2
File size                                : 4.93 GiB
Duration                                 : 1 h 26 min
Overall bit rate                         : 8 150 kb/s
Encoded date                             : UTC 2018-07-10 14:09:16
Writing application                      : mkvmerge v8.3.0 ('Over the Horizon') 64bit
Writing library                          : libebml v1.3.1 + libmatroska v1.4.2

Video
ID                                       : 1
Format                                   : AVC
Format/Info                              : Advanced Video Codec
Format profile                           : High@L3.1
Format settings                          : CABAC / 4 Ref Frames
Format settings, CABAC                   : Yes
Format settings, RefFrames               : 4 frames
Codec ID                                 : V_MPEG4/ISO/AVC
Duration                                 : 1 h 26 min
Bit rate                                 : 7 508 kb/s
Width                                    : 1 280 pixels
Height                                   : 720 pixels
Display aspect ratio                     : 16:9
Frame rate mode                          : Constant
Frame rate                               : 23.976 FPS
Color space                              : YUV
Chroma subsampling                       : 4:2:0
Bit depth                                : 8 bits
Scan type                                : Progressive
Bits/(Pixel*Frame)                       : 0.340
Stream size                              : 4.55 GiB (92%)
Writing library                          : x264 core 146 r2538 121396c
Encoding settings                        : cabac=1 / ref=1 / deblock=1:0:0 / analyse=0x3:0x113 / me=hex / subme=2 / psy=1 / psy_rd=1.00:0.00 / mixed_ref=0 / me_range=16 / chroma_me=1 / trellis=0 / 8x8dct=1 / cqm=0 / deadzone=21,11 / fast_pskip=1 / chroma_qp_offset=0 / threads=18 / lookahead_threads=5 / sliced_threads=0 / nr=0 / decimate=1 / interlaced=0 / bluray_compat=0 / constrained_intra=0 / bframes=3 / b_pyramid=2 / b_adapt=1 / b_bias=0 / direct=1 / weightb=1 / open_gop=0 / weightp=1 / keyint=250 / keyint_min=23 / scenecut=40 / intra_refresh=0 / rc_lookahead=10 / rc=crf / mbtree=1 / crf=14.0 / qcomp=0.60 / qpmin=0 / qpmax=69 / qpstep=4 / ip_ratio=1.40 / aq=1:1.00
Language                                 : English
Default                                  : Yes
Forced                                   : No

Audio
ID                                       : 2
Format                                   : AC-3
Format/Info                              : Audio Coding 3
Codec ID                                 : A_AC3
Duration                                 : 1 h 26 min
Bit rate mode                            : Constant
Bit rate                                 : 640 kb/s
Channel(s)                               : 2 channels
Channel positions                        : Front: L R
Sampling rate                            : 48.0 kHz
Frame rate                               : 31.250 FPS (1536 SPF)
Bit depth                                : 16 bits
Compression mode                         : Lossy
Stream size                              : 397 MiB (8%)
Service kind                             : Complete Main
Default                                  : Yes
Forced                                   : No



Скриншоты:
[+] Всего файлов в раздаче - 1:
Atlantic.Rim.2.2018.P.BDRip.720p.mkv4.93 GB

Текущая раздача:
ДатаКомментарии    РазмерПиры
2018-07-11 U Атлантический рубеж 2 / Atlantic Rim: Resurrection (2018) HDRip 720p | GreenРай Studio 4.93 GB ↑ 96 ↓ 48

Похожие раздачи по запросу - атлантический:
2018-07-11 U Атлантический рубеж 2 / Atlantic Rim: Resurrection (2018) HDRip 1080p | GreenРай Studio 7.52 GB ↑ 20 ↓ 35
2018-07-11 U Атлантический рубеж 2 / Atlantic Rim: Resurrection (2018) HDRip | GreenРай Studio 1.37 GB ↑ 48 ↓ 41

Отзывы
Зарегистрируйтесь чтобы добавить комментарий.
Обратная связь
Copyleft ©