↑↓Torrent.by
Поиск
Логин: Регистрация
Пароль: Восстановить пароль
Загрузка...

Долина теней / Skyggenes dal / Valley of Shadows (2017) HDRip 720p | GreenРай Studio

Скачать dolina-teney-skyggenes-dal-valley-of-shadows-2017-hdrip-720p-greenray-studio.torrent
U Магнитная ссылка Размер: 3.25 GB Раздают: 90 Качают: 25 Добавлен: 2018-07-11 20:52:02
Долина теней / Skyggenes dal / Valley of Shadows (2017) HDRip 720p | GreenРай Studio

Год выхода: 2017
Наименование: Долина теней
Оригинальное наименование: Valley of Shadows
Страна: Норвегия
Жанр:  ужасы
Режиссер постановщик: Джонас Мацов Гульбрандсен
В главных ролях: Адам Екели, Катрине Фагерланд, Джон Хоп Ларсен, Леннард Саламон

О фильме: Шестилетний Аслак живёт со своей матерью в небольшой деревушке, расположенной между морем и горами Норвегии. Однажды рядом с деревней обнаруживают растерзанных овец. Взрослая часть населения полагает, что это были волки, однако Аслак уверен, что в лесу живёт оборотень. И после того, как бесследно пропадает пёс Аслака, он, не раздумывая, отправляется в лес.

Файл
Качество: HDRip 720p
Видео данные: MKV, 1280x720 (16:9), 23.976 fps, 4352 Кбит/с
Аудио данные: AC3, 2 ch, 640 Кбит/с
Перевод: Любительский многоголосый (GreenРай Studio)
Субтитры: английские (хардсаб)
Продолжительность: 01:31:52

Внимание, имеется  видео и аудио реклама от спонсора показа

Релиз:


[+] Медиаинфо
General
Unique ID                                : 254801493150127606547425951397546492985 (0xBFB0FB889BF4A386996FAAA7C6C30439)
Complete name                            : E:ГРИНРАЙSkyggenes.dal.2017.P.BDRip.720p.mkv
Format                                   : Matroska
Format version                           : Version 2
File size                                : 3.25 GiB
Duration                                 : 1 h 31 min
Overall bit rate                         : 5 066 kb/s
Encoded date                             : UTC 2018-07-10 13:20:53
Writing application                      : mkvmerge v7.8.0 ('River Man') 32bit built on Apr  3 2015 12:11:22
Writing library                          : libebml v1.3.1 + libmatroska v1.4.2

Video
ID                                       : 1
Format                                   : AVC
Format/Info                              : Advanced Video Codec
Format profile                           : High@L3.1
Format settings                          : CABAC / 4 Ref Frames
Format settings, CABAC                   : Yes
Format settings, RefFrames               : 4 frames
Codec ID                                 : V_MPEG4/ISO/AVC
Duration                                 : 1 h 31 min
Bit rate                                 : 4 325 kb/s
Width                                    : 1 280 pixels
Height                                   : 720 pixels
Display aspect ratio                     : 16:9
Frame rate mode                          : Constant
Frame rate                               : 23.976 FPS
Color space                              : YUV
Chroma subsampling                       : 4:2:0
Bit depth                                : 8 bits
Scan type                                : Progressive
Bits/(Pixel*Frame)                       : 0.196
Stream size                              : 2.78 GiB (85%)
Writing library                          : x264 core 146 r2538 121396c
Encoding settings                        : cabac=1 / ref=1 / deblock=1:0:0 / analyse=0x3:0x113 / me=hex / subme=2 / psy=1 / psy_rd=1.00:0.00 / mixed_ref=0 / me_range=16 / chroma_me=1 / trellis=0 / 8x8dct=1 / cqm=0 / deadzone=21,11 / fast_pskip=1 / chroma_qp_offset=0 / threads=9 / lookahead_threads=3 / sliced_threads=0 / nr=0 / decimate=1 / interlaced=0 / bluray_compat=0 / constrained_intra=0 / bframes=3 / b_pyramid=2 / b_adapt=1 / b_bias=0 / direct=1 / weightb=1 / open_gop=0 / weightp=1 / keyint=250 / keyint_min=23 / scenecut=40 / intra_refresh=0 / rc_lookahead=10 / rc=crf / mbtree=1 / crf=13.5 / qcomp=0.60 / qpmin=0 / qpmax=69 / qpstep=4 / ip_ratio=1.40 / aq=1:1.00
Default                                  : Yes
Forced                                   : No

Audio
ID                                       : 2
Format                                   : AC-3
Format/Info                              : Audio Coding 3
Codec ID                                 : A_AC3
Duration                                 : 1 h 31 min
Bit rate mode                            : Constant
Bit rate                                 : 640 kb/s
Channel(s)                               : 2 channels
Channel positions                        : Front: L R
Sampling rate                            : 48.0 kHz
Frame rate                               : 31.250 FPS (1536 SPF)
Bit depth                                : 16 bits
Compression mode                         : Lossy
Stream size                              : 421 MiB (13%)
Service kind                             : Complete Main
Default                                  : Yes
Forced                                   : No



Скриншоты:
[+] Всего файлов в раздаче - 1:
Skyggenes.dal.2017.P.BDRip.720p.mkv3.25 GB

Текущая раздача:
ДатаКомментарии    РазмерПиры
2018-07-11 U Долина теней / Skyggenes dal / Valley of Shadows (2017) HDRip 720p | GreenРай Studio 3.25 GB ↑ 90 ↓ 25

Показать еще раздачи по запросу долина:
2018-07-11 U Долина теней / Skyggenes dal / Valley of Shadows (2017) HDRip 1080p | GreenРай Studio 6.50 GB ↑ 26 ↓ 16
2018-07-11 U Долина теней / Skyggenes dal / Valley of Shadows (2017) HDRip | GreenРай Studio 1.37 GB ↑ 45 ↓ 29
2018-03-26 U Кремниевая долина / Silicon Valley [05x01 из 10] (2018) WEB-DL 720p | Amedia 654.48 MB ↑ 83 ↓ 13
2018-03-17 U Долина теней / Skyggenes dal / Valley of Shadows (2017) WEB-DLRip | GreenРай Studio 1.36 GB ↑ 91 ↓ 30
2018-03-17 U Долина теней / Skyggenes dal / Valley of Shadows (2017) WEB-DLRip 1080p | GreenРай Studio 2.63 GB ↑ 92 ↓ 41
2018-03-04 U Долина костей / Valley of Bones (2017) WEBRip 720p | GreenРай Studio 2.68 GB ↑ 82 ↓ 21
2018-03-02 U Долина теней / Valley of Shadows / Skyggenes dal (2017) WEBRip | L1 1.17 GB ↑ 79 ↓ 19

Отзывы
Зарегистрируйтесь чтобы добавить комментарий.
Обратная связь
Copyleft ©