↑↓Torrent.by
Поиск
Логин: Регистрация
Пароль: Восстановить пароль
Загрузка...

Мир Триасового периода / Triassic World (2017) WEBRip 720p | L2

Скачать mir-triasovogo-perioda-triassic-world-2017-webrip-720p-l2.torrent
U Магнитная ссылка Размер: 2.11 GB Раздают: 60 Качают: 48 Добавлен: 2018-07-11 20:52:23
Мир Триасового периода / Triassic World (2017) WEBRip 720p | L2

Название: Мир Триасового периода
Оригинальное название: Triassic World
Год выхода: 2017
Жанр: Ужасы, фантастика, боевик
Режиссер: Дилан Вокс
В ролях: Джоэль Берти, Шарон Дезире, Грег Фурман, Джозеф Майкл Харрис, Даррин Хичкок, Жермен Холлман, Полина Лоран, Дженнифер Левинсон, Корбин Майлз, Брендан Петриццо и другие
О фильме:
Секретная лаборатория посреди мегаполиса выращивает динозавров, чтобы использовать их органы для трансплантации людям. Для этого ящерам предварительно вводятся человеческие гормоны и протеины. Но всё идёт не так, когда инъекции начинают оказывать неожиданный побочный эффект.

Страна: США, Asylum
Продолжительность: 01:29:38
Перевод: Любительский (двухголосый закадровый) | HiWay Grope

Файл
Кодек: MPEG-4 AVC/x.264
Качество: WEBRip 720p
Видео: 1280x718, 23.976 fps, ~2926 kbps, 0.133 bit/pixel
Звук:
Аудио rus: AC3, 48 kHz, 6 ch, 384 Kbps
Субтитры: отсутствуют

Реклама: присутствует

Семпл

Релиз от: HiWay Grope


[+] MediaInfo:

General
Unique ID                   : 210275316001963533913504971668908620007 (0x9E318D8207F5A884C124BEE5BCB338E7)
Complete name               : D:Triassic.World.2017.720p.WEBRip.HiWayGropeTriassic.World.2017.720p.WEBRip.HiWayGrope.mkv
Format                      : Matroska
Format version              : Version 4 / Version 2
File size                   : 2.11 GiB
Duration                    : 1 h 29 min
Overall bit rate            : 3 377 kb/s
Encoded date                : UTC 2018-07-11 14:30:38
Writing application         : mkvmerge v21.0.0 ('Tardigrades Will Inherit The Earth') 64-bit
Writing library             : libebml v1.3.5 + libmatroska v1.4.8

Video
ID                          : 1
Format                      : AVC
Format/Info                 : Advanced Video Codec
Format profile              : Main@L4.1
Format settings             : CABAC / 4 Ref Frames
Format settings, CABAC      : Yes
Format settings, ReFrames   : 4 frames
Codec ID                    : V_MPEG4/ISO/AVC
Duration                    : 1 h 29 min
Bit rate                    : 2 926 kb/s
Width                       : 1 280 pixels
Height                      : 718 pixels
Display aspect ratio        : 16:9
Frame rate mode             : Constant
Frame rate                  : 23.976 (24000/1001) FPS
Standard                    : NTSC
Color space                 : YUV
Chroma subsampling          : 4:2:0
Bit depth                   : 8 bits
Scan type                   : Progressive
Bits/(Pixel*Frame)          : 0.133
Stream size                 : 1.83 GiB (87%)
Language                    : English
Default                     : Yes
Forced                      : No
Color range                 : Limited
Color primaries             : BT.709
Transfer characteristics    : BT.709
Matrix coefficients         : BT.709

Audio
ID                          : 2
Format                      : AC-3
Format/Info                 : Audio Coding 3
Codec ID                    : A_AC3
Duration                    : 1 h 29 min
Bit rate mode               : Constant
Bit rate                    : 384 kb/s
Channel(s)                  : 6 channels
Channel positions           : Front: L C R, Side: L R, LFE
Sampling rate               : 48.0 kHz
Frame rate                  : 31.250 FPS (1536 SPF)
Bit depth                   : 16 bits
Compression mode            : Lossy
Stream size                 : 246 MiB (11%)
Language                    : Russian
Service kind                : Complete Main
Default                     : Yes
Forced                      : No




Скриншоты:
[+] Всего файлов в раздаче - 1:
Triassic.World.2017.720p.WEBRip.HiWayGrope.mkv2.11 GB

Текущая раздача:
ДатаКомментарии    РазмерПиры
2018-07-11 U Мир Триасового периода / Triassic World (2017) WEBRip 720p | L2 1 К 2.11 GB ↑ 60 ↓ 48

Похожие раздачи по запросу - триасового:
2018-07-12 U Мир Триасового периода / Triassic World (2017) WEBRip | L2 1.31 GB ↑ 46 ↓ 17

Отзывы
aleksei1387
Любопытный фильмец,глянуть стоит.

Зарегистрируйтесь чтобы добавить комментарий.
Обратная связь
Copyleft ©