↑↓Torrent.by
Поиск
Логин: Регистрация
Пароль: Восстановить пароль
Загрузка...

Смотри по сторонам / Лучше берегись / Better Watch Out (2016) BDRip 1080p | iTunes

Скачать smotri-po-storonam-luchshe-beregis-better-watch-out-2016-bdrip-1080p-itunes.torrent
U Магнитная ссылка Размер: 6.53 GB Раздают: 147 Качают: 46 Добавлен: 2018-07-12 05:39:19
Смотри по сторонам / Лучше берегись / Better Watch Out (2016) BDRip 1080p | iTunes

Название: Смотри по сторонам
Оригинальное название: Better Watch Out
Год выхода: 2016
Жанр: Ужасы, триллер
Страна: Австралия, США
Перевод: Дублированный | iTunes
Продолжительность: 01:28:50
Режиссер: Крис Пековер
В ролях: Оливия ДеДжонг, Леви Миллер, Эд Оксенбульд, Алекс Микич, Дакре Монтгомери, Патрик Варбертон, Вирджиния Мэдсен, Александра Матуско, Джорджия Холлэнд, Бо Андре и др.

О фильме: В доме на тихой пригородной улочке няня пытается защитить двенадцатилетнего мальчика от взломщиков, но вскоре обнаруживает, что это далеко не обыкновенное вторжение.

Файл
Качество: BDRip 1080p
Видео: MPEG-4 AVC, 1920x804, 9500 kbps, 24,000 fps
Звук#1: русский, AC3 5.1, 48 kHz, 384 kbps | iTunes
Звук#2: английский, AC3 5.1, 48 kHz, 640 kbps | оригинал
Субтитры: английские


[+] MI
General
Уникальный идентификатор                 : 218201961067682929791613640100838459867 (0xA4282B48762DDCCABE5EC266A10549DB)
Полное имя                               : F:TorrentBetterWatchOut2016BDRip1080p.mkv
Формат                                   : Matroska
Версия формата                           : Version 4 / Version 2
Размер файла                             : 6.53 GiB
Продолжительность                        : 1 h 28 min
Общий поток                              : 10.5 Mb/s
Название фильма                          : Better.Watch.Out.2016.BDRemux.1080p-porvaliparus
Дата кодирования                         : UTC 2018-07-11 10:37:17
Программа кодирования                    : mkvmerge v9.5.0 ('Quiet Fire') 64bit
Библиотека кодирования                   : libebml v1.3.4 + libmatroska v1.4.5

Video
Идентификатор                            : 1
Формат                                   : AVC
Формат/Информация                        : Advanced Video Codec
Профиль формата                          : High@L4.1
Настройки формата                        : CABAC / 5 Ref Frames
Параметр CABAC формата                   : Yes
Параметр RefFrames формата               : 5 frames
Идентификатор кодека                     : V_MPEG4/ISO/AVC
Продолжительность                        : 1 h 28 min
Битрейт                                  : 9 500 kb/s
Ширина                                   : 1 920 pixels
Высота                                   : 804 pixels
Соотношение сторон                       : 2.40:1
Режим частоты кадров                     : Constant
Частота кадров                           : 24.000 FPS
Цветовое пространство                    : YUV
Субдискретизация насыщенности            : 4:2:0
Битовая глубина                          : 8 bits
Тип развёртки                            : Progressive
Бит/(Пиксели*Кадры)                      : 0.256
Размер потока                            : 5.89 GiB (90%)
Заголовок                                : Better.Watch.Out.2016.BDRemux.1080p
Библиотека кодирования                   : x264 core 155 r2901M 7d0ff22
Настройки программы                      : cabac=1 / ref=5 / deblock=1:-2:-2 / analyse=0x3:0x113 / me=umh / subme=11 / psy=1 / psy_rd=1.00:0.00 / mixed_ref=1 / me_range=48 / chroma_me=1 / trellis=2 / 8x8dct=1 / cqm=0 / deadzone=21,11 / fast_pskip=0 / chroma_qp_offset=-2 / threads=9 / lookahead_threads=2 / sliced_threads=0 / nr=0 / decimate=0 / interlaced=0 / bluray_compat=0 / constrained_intra=0 / bframes=10 / b_pyramid=2 / b_adapt=2 / b_bias=0 / direct=3 / weightb=1 / open_gop=0 / weightp=2 / keyint=240 / keyint_min=24 / scenecut=40 / intra_refresh=0 / rc_lookahead=120 / rc=2pass / mbtree=0 / bitrate=9500 / ratetol=1.0 / qcomp=0.70 / qpmin=0 / qpmax=69 / qpstep=4 / cplxblur=20.0 / qblur=0.5 / vbv_maxrate=50000 / vbv_bufsize=62500 / nal_hrd=none / filler=0 / ip_ratio=1.40 / pb_ratio=1.30 / aq=3:0.80
Default                                  : Yes
Forced                                   : No

Audio #1
Идентификатор                            : 2
Формат                                   : AC-3
Формат/Информация                        : Audio Coding 3
Идентификатор кодека                     : A_AC3
Продолжительность                        : 1 h 28 min
Вид битрейта                             : Constant
Битрейт                                  : 384 kb/s
Каналы                                   : 6 channels
Расположение каналов                     : Front: L C R, Side: L R, LFE
Частота                                  : 48.0 kHz
Частота кадров                           : 31.250 FPS (1536 SPF)
Битовая глубина                          : 16 bits
Метод сжатия                             : Lossy
Размер потока                            : 244 MiB (4%)
Язык                                     : Russian
Default                                  : Yes
Forced                                   : No

Audio #2
Идентификатор                            : 3
Формат                                   : AC-3
Формат/Информация                        : Audio Coding 3
Идентификатор кодека                     : A_AC3
Продолжительность                        : 1 h 28 min
Вид битрейта                             : Constant
Битрейт                                  : 640 kb/s
Каналы                                   : 6 channels
Расположение каналов                     : Front: L C R, Side: L R, LFE
Частота                                  : 48.0 kHz
Частота кадров                           : 31.250 FPS (1536 SPF)
Битовая глубина                          : 16 bits
Метод сжатия                             : Lossy
Размер потока                            : 407 MiB (6%)
Язык                                     : English
Default                                  : No
Forced                                   : No

Text
Идентификатор                            : 4
Формат                                   : UTF-8
Идентификатор кодека                     : S_TEXT/UTF8
Идентификатор кодека/Информация          : UTF-8 Plain Text
Продолжительность                        : 1 h 25 min
Битрейт                                  : 55 b/s
ElementCount                             : 1306
Размер потока                            : 34.6 KiB (0%)
Язык                                     : English
Default                                  : No
Forced                                   : No

Menu
00:00:00.000                             : :Chapter 1
00:06:42.500                             : :Chapter 2
00:11:53.000                             : :Chapter 3
00:21:24.000                             : :Chapter 4
00:29:56.083                             : :Chapter 5
00:33:32.083                             : :Chapter 6
00:44:51.708                             : :Chapter 7
00:55:02.625                             : :Chapter 8
01:02:11.542                             : :Chapter 9
01:09:28.292                             : :Chapter 10
01:17:59.000                             : :Chapter 11
01:23:42.875                             : :Chapter 12




Скриншоты:
[+] Всего файлов в раздаче - 1:
BetterWatchOut2016BDRip1080p.mkv6.53 GB

Текущая раздача:
ДатаКомментарии    РазмерПиры
2018-07-12 U Смотри по сторонам / Лучше берегись / Better Watch Out (2016) BDRip 1080p | iTunes 6.53 GB ↑ 147 ↓ 46

Показать еще раздачи по запросу смотри:
2018-07-13 U Смотри по сторонам / Лучше берегись / Better Watch Out (2016) BDRip от MegaPeer | iTunes 745.12 MB ↑ 37 ↓ 5
2018-07-12 U Смотри по сторонам / Лучше берегись / Better Watch Out (2016) BDRip 720p от HELLYWOOD | iTunes 2.87 GB ↑ 92 ↓ 52
2018-07-12 U Смотри по сторонам / Лучше берегись / Better Watch Out (2016) BDRip | iTunes 1.47 GB ↑ 36 ↓ 17
2018-07-12 U Смотри по сторонам / Лучше берегись / Better Watch Out (2016) BDRip 720p | iTunes 3.73 GB ↑ 86 ↓ 24
2018-07-12 U Смотри по сторонам / Лучше берегись / Better Watch Out (2016) BDRip от MegaPeer | iTunes 1.41 GB ↑ 202 ↓ 46
2018-06-23 U Смотри в оба! (1981) SATRip-AVC от KORSAR 1.09 GB ↑ 97 ↓ 33
2018-03-20 U Смотри в свою тарелку! / Ne gledaj mi u pijat (2016) HDRip-AVC | L1 1.47 GB ↑ 71 ↓ 18

Отзывы
Зарегистрируйтесь чтобы добавить комментарий.
Обратная связь
Copyleft ©