↑↓Torrent.by
Поиск
Логин: Регистрация
Пароль: Восстановить пароль
Загрузка...

Лицо / Twarz (2018) WEB-DL 1080p | iTunes

Скачать lico-twarz-2018-web-dl-1080p-itunes.torrent
U Магнитная ссылка Размер: 3.29 GB Раздают: 84 Качают: 28 Добавлен: 2018-07-12 05:39:39
Лицо / Twarz (2018) WEB-DL 1080p | iTunes

Название: Лицо
Оригинальное название: Twarz
Год выхода: 2018
Жанр: Драма, комедия
Режиссер: Малгожата Шумовска
В ролях: Матеуш Косьцюкевич, Агнешка Подсядлик, Мальгожата Гороль, Роман Ганцарчик, Дариуш Хойнацкий, Роберт Таларчик, Анна Томашевская, Мартына Кшиштофик, Ивона Бельска

О фильме: Все любят красавчика Яцека, а Яцек любит рок и свою собаку. Он трудится на возведении самой высокой в мире статуи Иисуса Христа, а по вечерам зажигает на танцполе с любимой девушкой. Однажды Яцек получает серьезную травму и чудом спасается, правда врачи пересаживают ему чужое лицо. Эта операция делает Яцека настоящим национальным героем, только вот с новым лицом трудно смириться и его окружению, и ему самому.

Страна: Польша
Студия: DI Factory, Dreamsound Studio, Kino Swiat
Продолжительность: 01:31:28
Перевод: Профессиональный, многоголосый, закадровый ~ iTunes

Файл
Кодек: MPEG-4 AVC
Качество: WEB-DL 1080p
Видео: 1920x804, 4644kb/s, 24.000fps
Звук:
1] 384kb/s, 6ch, 48000kHz, AC3 [RUS] | iTunes
2] 125kb/s, 2ch, 48000kHz, AAC [RUS] | iTunes
Субтитры: Отсутствуют


[+] MI

Формат                                   : Matroska
Версия формата                           : Version 4 / Version 2
Размер файла                             : 3,29 Гбайт
Продолжительность                        : 1 ч. 31 м.
Общий поток                              : 5156 Кбит/сек
Название фильма                          : Twarz.2018.WEB-DL.1080p-ylnian
Дата кодирования                         : UTC 2018-07-10 16:42:45
Программа кодирования                    : mkvmerge v24.0.0 ('Beyond The Pale') 64-bit
Библиотека кодирования                   : libebml v1.3.6 + libmatroska v1.4.9

Видео
Идентификатор                            : 1
Формат                                   : AVC
Формат/Информация                        : Advanced Video Codec
Профиль формата                          : High@L4
Настройки формата                        : CABAC / 5 Ref Frames
Параметр CABAC формата                   : Да
Параметр RefFrames формата               : 5 кадров
Идентификатор кодека                     : V_MPEG4/ISO/AVC
Продолжительность                        : 1 ч. 31 м.
Битрейт                                  : 4644 Кбит/сек
Ширина                                   : 1920 пикселей
Высота                                   : 804 пикселя
Соотношение сторон                       : 2,40:1
Режим частоты кадров                     : Постоянный
Частота кадров                           : 24,000 кадра/сек
Цветовое пространство                    : YUV
Субдискретизация насыщенности            : 4:2:0
Битовая глубина                          : 8 бит
Тип развёртки                            : Прогрессивная
Бит/(Пиксели*Кадры)                      : 0.125
Размер потока                            : 2,97 Гбайт (90%)
Язык                                     : Polish
Default                                  : Да
Forced                                   : Да
Цветовой диапазон                        : Limited
Основные цвета                           : BT.709
Характеристики трансфера                 : BT.709
Коэффициенты матрицы                     : BT.709

Аудио #1
Идентификатор                            : 2
Формат                                   : AC-3
Формат/Информация                        : Audio Coding 3
Идентификатор кодека                     : A_AC3
Продолжительность                        : 1 ч. 31 м.
Вид битрейта                             : Постоянный
Битрейт                                  : 384 Кбит/сек
Каналы                                   : 6 каналов
Расположение каналов                     : Front: L C R, Side: L R, LFE
Частота                                  : 48,0 КГц
Частота кадров                           : 31,250 кадров/сек (1536 SPF)
Битовая глубина                          : 16 бит
Метод сжатия                             : С потерями
Размер потока                            : 251 Мбайт (7%)
Язык                                     : Russian
Default                                  : Да
Forced                                   : Да

Аудио #2
Идентификатор                            : 3
Формат                                   : AAC
Формат/Информация                        : Advanced Audio Codec
Профиль формата                          : LC
Идентификатор кодека                     : A_AAC-2
Продолжительность                        : 1 ч. 31 м.
Битрейт                                  : 125 Кбит/сек
Каналы                                   : 2 канала
Расположение каналов                     : Front: L R
Частота                                  : 48,0 КГц
Частота кадров                           : 46,875 кадров/сек (1024 SPF)
Метод сжатия                             : С потерями
Размер потока                            : 82,0 Мбайт (2%)
Язык                                     : Russian
Default                                  : Нет
Forced                                   : Нет



Скриншоты:
[+] Всего файлов в раздаче - 1:
Лицо [Twarz] 2018 [WEB-DL 1080p] iTunes.mkv3.29 GB

Текущая раздача:
ДатаКомментарии    РазмерПиры
2018-07-12 U Лицо / Twarz (2018) WEB-DL 1080p | iTunes 3.29 GB ↑ 84 ↓ 28

Показать еще раздачи по запросу лицо:
2018-07-13 U Двойное лицо / Het Tweede Gelaat (2017) HDRip 1080p | GreenРай Studio 1К9.41 GB ↑ 58 ↓ 21
2018-07-13 U Двойное лицо / Het Tweede Gelaat (2017) HDRip 720p | GreenРай Studio 4.28 GB ↑ 68 ↓ 20
2018-07-12 U Двойное лицо / Het Tweede Gelaat (2017) HDRip | GreenРай Studio 1.45 GB ↑ 169 ↓ 121
2018-07-11 U Лицо / Twarz (2018) WEB-DLRip от MegaPeer | iTunes 1К1.49 GB ↑ 155 ↓ 90
2018-05-08 U Техасская резня бензопилой: Кожаное лицо / Leatherface (2017) BDRip от ExKinoRay | Лицензия 1.46 GB ↑ 31 ↓ 9
2018-05-04 U Не терять лицо / La face (2016) HDTVRip | GreenРай Studio 1.46 GB ↑ 91 ↓ 17
2018-04-05 U Последнее лицо / The Last Face (2016) HDRip от Scarabey | P 1.45 GB ↑ 87 ↓ 32

Отзывы
Зарегистрируйтесь чтобы добавить комментарий.
Обратная связь
Copyleft ©