↑↓Torrent.by
Поиск
Логин: Регистрация
Пароль: Восстановить пароль
Загрузка...

Смотри по сторонам / Лучше берегись / Better Watch Out (2016) BDRip | iTunes

Скачать smotri-po-storonam-luchshe-beregis-better-watch-out-2016-bdrip-itunes.torrent
U Магнитная ссылка Размер: 1.47 GB Раздают: 59 Качают: 18 Добавлен: 2018-07-12 05:40:12
Смотри по сторонам / Лучше берегись / Better Watch Out (2016) BDRip  | iTunes

Название: Смотри по сторонам
Оригинальное название: Better Watch Out
Год выхода: 2016
Жанр: Ужасы, триллер
Страна: Австралия, США
Перевод: Дублированный | iTunes
Продолжительность: 01:28:50
Режиссер: Крис Пековер
В ролях: Оливия ДеДжонг, Леви Миллер, Эд Оксенбульд, Алекс Микич, Дакре Монтгомери, Патрик Варбертон, Вирджиния Мэдсен, Александра Матуско, Джорджия Холлэнд, Бо Андре и др.

О фильме: В доме на тихой пригородной улочке няня пытается защитить двенадцатилетнего мальчика от взломщиков, но вскоре обнаруживает, что это далеко не обыкновенное вторжение.

Файл
Формат: AVI
Качество: BDRip
Видео: Xvid, 720x304, ~1969 kbps, 24,000 fps
Звук: русский, AC3 5.1, 48 kHz, 384 kbps | iTunes
Субтитры: нет


[+] MI
General
Полное имя                               : F:TorrentBetterWatchOut2016BDRip.avi
Формат                                   : AVI
Формат/Информация                        : Audio Video Interleave
Размер файла                             : 1.47 GiB
Продолжительность                        : 1 h 28 min
Общий поток                              : 2 362 kb/s
Программа кодирования                    : XviD4PSP 6.0 / 54.27.101
Библиотека кодирования                   : VirtualDub build 35491/release

Video
Идентификатор                            : 0
Формат                                   : MPEG-4 Visual
Профиль формата                          : Advanced Simple@L5
Настройки формата                        : BVOP2 / Custom Matrix
Параметр BVOP формата                    : 2
Параметр QPel формата                    : No
Параметр GMC формата                     : No warppoints
Параметр матрицы формата                 : Custom
Идентификатор кодека                     : XVID
Идентификатор кодека/Подсказка           : XviD
Продолжительность                        : 1 h 28 min
Битрейт                                  : 1 968 kb/s
Ширина                                   : 720 pixels
Высота                                   : 304 pixels
Соотношение сторон                       : 2.35:1
Частота кадров                           : 24.000 FPS
Цветовое пространство                    : YUV
Субдискретизация насыщенности            : 4:2:0
Битовая глубина                          : 8 bits
Тип развёртки                            : Progressive
Метод сжатия                             : Lossy
Бит/(Пиксели*Кадры)                      : 0.375
Размер потока                            : 1.22 GiB (83%)
Библиотека кодирования                   : XviD 67

Audio
Идентификатор                            : 1
Формат                                   : AC-3
Формат/Информация                        : Audio Coding 3
Идентификатор кодека                     : 2000
Продолжительность                        : 1 h 28 min
Вид битрейта                             : Constant
Битрейт                                  : 384 kb/s
Каналы                                   : 6 channels
Расположение каналов                     : Front: L C R, Side: L R, LFE
Частота                                  : 48.0 kHz
Частота кадров                           : 31.250 FPS (1536 SPF)
Битовая глубина                          : 16 bits
Метод сжатия                             : Lossy
Размер потока                            : 244 MiB (16%)
Выравнивание                             : Aligned on interleaves
Продолжительность промежутка             : 42  ms (1.00 video frame)
Время предзагрузки промежутка            : 512  ms




Скриншоты:
[+] Всего файлов в раздаче - 1:
BetterWatchOut2016BDRip.avi1.47 GB

Текущая раздача:
ДатаКомментарии    РазмерПиры
2018-07-12 U Смотри по сторонам / Лучше берегись / Better Watch Out (2016) BDRip | iTunes 1.47 GB ↑ 59 ↓ 18

Показать еще раздачи по запросу смотри:
2018-07-13 U Смотри по сторонам / Лучше берегись / Better Watch Out (2016) BDRip от MegaPeer | iTunes 745.12 MB ↑ 37 ↓ 5
2018-07-12 U Смотри по сторонам / Лучше берегись / Better Watch Out (2016) BDRip 720p от HELLYWOOD | iTunes 2.87 GB ↑ 92 ↓ 52
2018-07-12 U Смотри по сторонам / Лучше берегись / Better Watch Out (2016) BDRip 720p | iTunes 3.73 GB ↑ 92 ↓ 24
2018-07-12 U Смотри по сторонам / Лучше берегись / Better Watch Out (2016) BDRip 1080p | iTunes 6.53 GB ↑ 150 ↓ 46
2018-07-12 U Смотри по сторонам / Лучше берегись / Better Watch Out (2016) BDRip от MegaPeer | iTunes 1.41 GB ↑ 281 ↓ 46
2018-06-23 U Смотри в оба! (1981) SATRip-AVC от KORSAR 1.09 GB ↑ 121 ↓ 34
2018-03-20 U Смотри в свою тарелку! / Ne gledaj mi u pijat (2016) HDRip-AVC | L1 1.47 GB ↑ 71 ↓ 18

Отзывы
Зарегистрируйтесь чтобы добавить комментарий.
Обратная связь
Copyleft ©