↑↓Torrent.by
Поиск
Логин: Регистрация
Пароль: Восстановить пароль
Загрузка...

Смерть Супермена / The Death of Superman (2018) WEB-DL 1080p | HDrezka Studio

Скачать smert-supermena-the-death-of-superman-2018-web-dl-1080p-hdrezka-studio.torrent
U Магнитная ссылка Размер: 3.24 GB Раздают: 111 Качают: 40 Добавлен: 2018-07-12 19:04:19
Смерть Супермена / The Death of Superman (2018) WEB-DL 1080p | HDrezka Studio

Смерть Супермена / The Death of Superman

Страна: США
Производство: DC Entertainment, Warner Bros. Animation
Год выпуска: 2018
Жанр:  мультфильм, фантастика, боевик
Продолжительность: 01:20:54

Режиссеры: Джейк Касторена, Сэм Лью
Авторы сценария: Джерри Сигел, Джо Шустер, Луиз Симонсон

В ролях: Джерри О’Коннелл, Ребекка Ромейн, Рэйн Уилсон, Розарио Доусон, Нэйтан Филлион, Кристофер Горам, Мэтт Лантер, Шемар Мур

Описание: Кларк Кент подумывает о том, чтобы раскрыть возлюбленной Лоис Лэйн свой самый большой секрет - что он является Суперменом. В это же время на Землю прибывает страшное чудовище Думсдэй, обладающее невероятной силой и злобой. Все супергерои в составе Лиги справедливости с трудом сдерживают монстра, поэтому Супермену придётся отложить свои личные дела и постараться помочь товарищам победить врага...

Перевод: Профессиональный (многоголосый, закадровый) | HDrezka Studio
Субтитры: нет

Качество: WEB-DL 1080p
Формат: МКV
Видео кодек: AVC
Аудио кодек: АС3
Видео: 1920х1078 (16:9), 23.976 fps, MPEG-4 AVC ~5 043 kbps avg
Аудио №1: 48.0 kHz, AC3 Dolby Digital, 2/0 (L,R) ch, ~192 kbps | RUS | HDrezka Studio
Аудио №2: 48.0 kHz, AC3 Dolby Digital, 3/2 (L,C,R,l,r) + LFE ch, ~384 kbps | ENG

Дата премьеры (мир): 24 июля 2018


[+] Media Info
General
Unique ID                      : 216207290862849363941041410217142082416 (0xA2A80272F79A5C3B9E0DDB6B1B475B70)
Complete name                  : The Death of Superman (2018) WEB-DL 1080p.mkv
Format                         : Matroska
Format version                 : Version 2
File size                      : 3.24 GiB
Duration                       : 1h 20mn
Overall bit rate               : 5 733 Kbps
Encoded date                   : UTC 2018-07-12 06:54:09
Writing application            : mkvmerge v7.8.0 ('River Man') 32bit built on Apr  3 2015 12:11:22
Writing library                : libebml v1.3.1 + libmatroska v1.4.2
DURATION                       : 01:20:53.632000000
NUMBER_OF_FRAMES               : 151676
NUMBER_OF_BYTES                : 232974336
_STATISTICS_WRITING_APP        : mkvmerge v24.0.0 ('Beyond The Pale') 64-bit
_STATISTICS_WRITING_DATE_UTC   : 2018-06-18 14:44:45
_STATISTICS_TAGS               : BPS DURATION NUMBER_OF_FRAMES NUMBER_OF_BYTES

Video
ID                             : 1
Format                         : AVC
Format/Info                    : Advanced Video Codec
Format profile                 : High@L4
Format settings, CABAC         : Yes
Format settings, ReFrames      : 4 frames
Codec ID                       : V_MPEG4/ISO/AVC
Duration                       : 1h 20mn
Bit rate                       : 5 043 Kbps
Width                          : 1 920 pixels
Height                         : 1 078 pixels
Display aspect ratio           : 16:9
Frame rate mode                : Constant
Frame rate                     : 23.976 fps
Color space                    : YUV
Chroma subsampling             : 4:2:0
Bit depth                      : 8 bits
Scan type                      : Progressive
Bits/(Pixel*Frame)             : 0.102
Stream size                    : 2.85 GiB (88%)
Language                       : English
Default                        : Yes
Forced                         : No
Color range                    : Limited
Color primaries                : BT.709
Transfer characteristics       : BT.709
Matrix coefficients            : BT.709

Audio #1
ID                             : 2
Format                         : AC-3
Format/Info                    : Audio Coding 3
Mode extension                 : CM (complete main)
Format settings, Endianness    : Big
Codec ID                       : A_AC3
Duration                       : 1h 20mn
Bit rate mode                  : Constant
Bit rate                       : 192 Kbps
Channel(s)                     : 2 channels
Channel positions              : Front: L R
Sampling rate                  : 48.0 KHz
Compression mode               : Lossy
Stream size                    : 111 MiB (3%)
Language                       : Russian
Default                        : Yes
Forced                         : Yes

Audio #2
ID                             : 3
Format                         : AC-3
Format/Info                    : Audio Coding 3
Mode extension                 : CM (complete main)
Format settings, Endianness    : Big
Codec ID                       : A_AC3
Duration                       : 1h 20mn
Bit rate mode                  : Constant
Bit rate                       : 384 Kbps
Channel(s)                     : 6 channels
Channel positions              : Front: L C R, Side: L R, LFE
Sampling rate                  : 48.0 KHz
Compression mode               : Lossy
Stream size                    : 222 MiB (7%)
Language                       : English
Default                        : No
Forced                         : No

Menu
00:00:00.000                   : en:Chapter 1
00:09:32.000                   : en:Chapter 2
00:20:02.000                   : en:Chapter 3
00:32:29.000                   : en:Chapter 4
00:40:18.000                   : en:Chapter 5
00:51:40.000                   : en:Chapter 6
01:03:31.000                   : en:Chapter 7
01:11:00.000                   : en:Chapter 8
01:17:04.000                   : en:Chapter 9



Скриншоты:
[+] Всего файлов в раздаче - 1:
The Death of Superman (2018) WEB-DL 1080p.mkv3.24 GB

Текущая раздача:
ДатаКомментарии    РазмерПиры
2018-07-12 U Смерть Супермена / The Death of Superman (2018) WEB-DL 1080p | HDrezka Studio 3.24 GB ↑ 111 ↓ 40

Показать еще раздачи по запросу смерть:
2018-07-30 U Смерть Супермена / The Death of Superman (2018) WEB-DLRip 1080p | Flarrow Films 3.09 GB ↑ 27 ↓ 7
2018-07-28 U Смерть Супермена / The Death of Superman (2018) BDRip 1080p | HDrezka Studio 3.38 GB ↑ 52 ↓ 18
2018-07-12 U Смерть Супермена / The Death of Superman (2018) WEB-DLRip | HDrezka Studio 1.36 GB ↑ 104 ↓ 41
2018-07-06 U Смерть Супермена / The Death of Superman (2018) WEB-DL 1080p | ZM-SHOW 2.99 GB ↑ 311 ↓ 33
2018-07-01 U Смерть на похоронах / Death at a Funeral (2007) BDRip 720p | D 1К4.58 GB ↑ 69 ↓ 31
2018-05-28 U Геенна: Где живёт смерть / Gehenna: Where Death Lives (2016) WEB-DL 1080p | L1 4.00 GB ↑ 31 ↓ 23
2018-05-27 U Геенна: Где живёт смерть / Gehenna: Where Death Lives (2016) WEBRip-AVC | L1 1.41 GB ↑ 354 ↓ 91

Отзывы
Зарегистрируйтесь чтобы добавить комментарий.
Обратная связь
Copyleft ©