↑↓Torrent.by
Поиск
Логин: Регистрация
Пароль: Восстановить пароль
Загрузка...

Смерть Супермена / The Death of Superman (2018) WEB-DLRip | HDrezka Studio

Скачать smert-supermena-the-death-of-superman-2018-web-dlrip-hdrezka-studio.torrent
U Магнитная ссылка Размер: 1.36 GB Раздают: 104 Качают: 41 Добавлен: 2018-07-12 19:05:12
Смерть Супермена / The Death of Superman (2018) WEB-DLRip | HDrezka Studio

Смерть Супермена / The Death of Superman

Страна: США
Производство: DC Entertainment, Warner Bros. Animation
Год выпуска: 2018
Жанр:  мультфильм, фантастика, боевик
Продолжительность: 01:20:54

Режиссеры: Джейк Касторена, Сэм Лью
Авторы сценария: Джерри Сигел, Джо Шустер, Луиз Симонсон

В ролях: Джерри О’Коннелл, Ребекка Ромейн, Рэйн Уилсон, Розарио Доусон, Нэйтан Филлион, Кристофер Горам, Мэтт Лантер, Шемар Мур

Описание: Кларк Кент подумывает о том, чтобы раскрыть возлюбленной Лоис Лэйн свой самый большой секрет - что он является Суперменом. В это же время на Землю прибывает страшное чудовище Думсдэй, обладающее невероятной силой и злобой. Все супергерои в составе Лиги справедливости с трудом сдерживают монстра, поэтому Супермену придётся отложить свои личные дела и постараться помочь товарищам победить врага...

Перевод: Профессиональный (многоголосый, закадровый) | HDrezka Studio
Субтитры: нет

Качество: WEB-DLRip
Формат: AVI
Видео кодек: XviD
Аудио кодек: АС3
Видео: 720x400 (16:9), 23.976 fps, XviD ~2 031 kbps avg
Аудио: 48.0 kHz, AC3 Dolby Digital, 2/0 (L,R) ch, ~192 kbps

Дата премьеры (мир): 24 июля 2018


[+] Media Info
General
Format                         : AVI
Format/Info                    : Audio Video Interleave
File size                      : 1.36 GiB
Duration                       : 1h 20mn
Overall bit rate               : 2 410 Kbps
Writing application            : VirtualDubMod 1.5.10.3 | (build 2550/release)
Writing library                : VirtualDubMod build 2550/release

Video
ID                             : 0
Format                         : MPEG-4 Visual
Format profile                 : Advanced Simple@L5
Format settings, BVOP          : 2
Format settings, QPel          : No
Format settings, GMC           : No warppoints
Format settings, Matrix        : Custom
Codec ID                       : XVID
Codec ID/Hint                  : XviD
Duration                       : 1h 20mn
Source duration                : 35mn 20s
Bit rate                       : 2 031 Kbps
Width                          : 720 pixels
Height                         : 400 pixels
Display aspect ratio           : 16:9
Frame rate                     : 23.976 fps
Color space                    : YUV
Chroma subsampling             : 4:2:0
Bit depth                      : 8 bits
Scan type                      : Progressive
Compression mode               : Lossy
Bits/(Pixel*Frame)             : 0.294
Stream size                    : 513 MiB (37%)
Writing library                : XviD 1.2.1 (UTC 2008-12-04)

Audio
ID                             : 1
Format                         : AC-3
Format/Info                    : Audio Coding 3
Mode extension                 : CM (complete main)
Format settings, Endianness    : Big
Codec ID                       : 2000
Duration                       : 1h 20mn
Source duration                : 35mn 20s
Bit rate mode                  : Constant
Bit rate                       : 192 Kbps
Channel(s)                     : 2 channels
Channel positions              : Front: L R
Sampling rate                  : 48.0 KHz
Compression mode               : Lossy
Stream size                    : 48.5 MiB (3%)
Alignment                      : Split accross interleaves
Interleave, duration           : 42 ms (1.00 video frame)
Interleave, preload duration   : 500 ms



Скриншоты:
[+] Всего файлов в раздаче - 1:
The Death of Superman (2018) WEB-DLRip.avi1.36 GB

Текущая раздача:
ДатаКомментарии    РазмерПиры
2018-07-12 U Смерть Супермена / The Death of Superman (2018) WEB-DLRip | HDrezka Studio 1.36 GB ↑ 104 ↓ 41

Показать еще раздачи по запросу смерть:
2018-07-30 U Смерть Супермена / The Death of Superman (2018) WEB-DLRip 1080p | Flarrow Films 3.09 GB ↑ 27 ↓ 7
2018-07-28 U Смерть Супермена / The Death of Superman (2018) BDRip 1080p | HDrezka Studio 3.38 GB ↑ 52 ↓ 18
2018-07-12 U Смерть Супермена / The Death of Superman (2018) WEB-DL 1080p | HDrezka Studio 3.24 GB ↑ 111 ↓ 40
2018-07-06 U Смерть Супермена / The Death of Superman (2018) WEB-DL 1080p | ZM-SHOW 2.99 GB ↑ 311 ↓ 33
2018-07-01 U Смерть на похоронах / Death at a Funeral (2007) BDRip 720p | D 1К4.58 GB ↑ 69 ↓ 31
2018-05-28 U Геенна: Где живёт смерть / Gehenna: Where Death Lives (2016) WEB-DL 1080p | L1 4.00 GB ↑ 31 ↓ 23
2018-05-27 U Геенна: Где живёт смерть / Gehenna: Where Death Lives (2016) WEBRip-AVC | L1 1.41 GB ↑ 354 ↓ 91

Отзывы
Зарегистрируйтесь чтобы добавить комментарий.
Обратная связь
Copyleft ©