↑↓Torrent.by
Поиск
Логин: Регистрация
Пароль: Восстановить пароль
Загрузка...

Калибр / Calibre (2018) WEBRip 720p | HDRezka Studio

Скачать kalibr-calibre-2018-webrip-720p-hdrezka-studio.torrent
U Магнитная ссылка Размер: 2.12 GB Раздают: 163 Качают: 78 Добавлен: 2018-07-13 19:11:31
Калибр / Calibre (2018) WEBRip 720p | HDRezka Studio

Название: Калибр
Оригинальное название: Calibre
Год выпуска: 2018
Страна: Великобритания
Жанр: триллер
Перевод: Профессиональный многоголосый [HDRezka Studio]
Субтитры: английские (SDH)
Продолжительность: 01:41:01
Режиссер: Мэтт Палмер
В ролях: Джек Лауден (Vaughn), Мартин МакКанн (Marcus), Тони Кёрран (Logan McClay), Йен Пири (Brian McClay), Джордж Энтон (Angus), Кейт Брекен (Iona), Тереза Брэдли (Mary), Джо Кэссиди (Pete), Камерон Джек (Frank), Китти Ловетт (Kara), Кэл Макэнинк (Al), Роб МакДжилливрэй (Johnny Sutherland)

Описание:
Два старых закадычных друга отправляются на выходные в шотландскую сельскую местность. У одного из них ожидается пополнение в семействе, и парни решают напоследок хорошенько повеселиться. В первый вечер изрядно заложив за воротник, на следующий день друзья отправляются на охоту в местные леса, где сталкиваются с непредвиденными обстоятельствами.

 
Качество: WEBRip 720p
Формат: MKV
Видео: AVC, 1280x720 (16:9), 2260 kbps, 24 fps, 0,102 bpp
Аудио №1: русский / AC3 / 2.0 / 48 kHz / 384 kbps / |MVO|
Аудио №2: английский / AC3 / 5.1 / 48 kHz / 384 kbps /
Семпл


[+] ОтчетМедиаИнфо

General
Unique ID                                : 155096897474303996773681161799472923004 (0x74AE936F044CE931BE76CD9C2A9A417C)
Complete name                            : F:Calibre.2018.720p.NF.MVO.WEBRip.mkv
Format                                   : Matroska
Format version                           : Version 4 / Version 2
File size                                : 2.12 GiB
Duration                                 : 1 h 41 min
Overall bit rate mode                    : Variable
Overall bit rate                         : 2 999 kb/s
Encoded date                             : UTC 2018-07-13 12:25:22
Writing application                      : mkvmerge v25.0.0 ('Prog Noir') 64-bit
Writing library                          : libebml v1.3.6 + libmatroska v1.4.9

Video
ID                                       : 1
Format                                   : AVC
Format/Info                              : Advanced Video Codec
Format profile                           : Main@L3.1
Format settings, CABAC                   : Yes
Format settings, ReFrames                : 3 frames
Codec ID                                 : V_MPEG4/ISO/AVC
Duration                                 : 1 h 41 min
Bit rate mode                            : Variable
Bit rate                                 : 2 260 kb/s
Maximum bit rate                         : 3 390 kb/s
Width                                    : 1 280 pixels
Height                                   : 720 pixels
Display aspect ratio                     : 16:9
Frame rate mode                          : Constant
Frame rate                               : 24.000 FPS
Color space                              : YUV
Chroma subsampling                       : 4:2:0
Bit depth                                : 8 bits
Scan type                                : Progressive
Bits/(Pixel*Frame)                       : 0.102
Stream size                              : 1.57 GiB (74%)
Writing library                          : x264 core 148 r2715 7e75228
Encoding settings                        : cabac=1 / ref=3 / deblock=1:0:0 / analyse=0x1:0x111 / me=umh / subme=10 / psy=1 / psy_rd=1.00:0.00 / mixed_ref=1 / me_range=24 / chroma_me=1 / trellis=2 / 8x8dct=0 / cqm=0 / deadzone=21,11 / fast_pskip=1 / chroma_qp_offset=-2 / threads=8 / lookahead_threads=1 / sliced_threads=0 / nr=0 / decimate=1 / interlaced=0 / bluray_compat=0 / stitchable=1 / constrained_intra=0 / bframes=2 / b_pyramid=0 / b_adapt=2 / b_bias=0 / direct=3 / weightb=1 / open_gop=0 / weightp=2 / keyint=48 / keyint_min=25 / scenecut=0 / intra_refresh=0 / rc_lookahead=48 / rc=2pass / mbtree=1 / bitrate=2260 / ratetol=1.0 / qcomp=0.50 / qpmin=6 / qpmax=51 / qpstep=4 / cplxblur=20.0 / qblur=0.5 / vbv_maxrate=3390 / vbv_bufsize=4520 / nal_hrd=vbr / filler=0 / ip_ratio=1.40 / aq=1:1.00
Language                                 : English
Default                                  : Yes
Forced                                   : No

Audio #1
ID                                       : 2
Format                                   : AC-3
Format/Info                              : Audio Coding 3
Mode extension                           : CM (complete main)
Format settings, Endianness              : Big
Codec ID                                 : A_AC3
Duration                                 : 1 h 40 min
Bit rate mode                            : Constant
Bit rate                                 : 384 kb/s
Channel(s)                               : 2 channels
Channel positions                        : Front: L R
Sampling rate                            : 48.0 kHz
Frame rate                               : 31.250 FPS (1536 spf)
Compression mode                         : Lossy
Stream size                              : 277 MiB (13%)
Title                                    : MVO | HDRezka Studio
Language                                 : Russian
Default                                  : Yes
Forced                                   : No

Audio #2
ID                                       : 3
Format                                   : AC-3
Format/Info                              : Audio Coding 3
Mode extension                           : CM (complete main)
Format settings, Endianness              : Big
Codec ID                                 : A_AC3
Duration                                 : 1 h 41 min
Bit rate mode                            : Constant
Bit rate                                 : 384 kb/s
Channel(s)                               : 6 channels
Channel positions                        : Front: L C R, Side: L R, LFE
Sampling rate                            : 48.0 kHz
Frame rate                               : 31.250 FPS (1536 spf)
Compression mode                         : Lossy
Stream size                              : 277 MiB (13%)
Title                                    : Original
Language                                 : English
Default                                  : No
Forced                                   : No

Text #1
ID                                       : 4
Format                                   : UTF-8
Codec ID                                 : S_TEXT/UTF8
Codec ID/Info                            : UTF-8 Plain Text
Duration                                 : 1 h 33 min
Bit rate                                 : 38 b/s
Count of elements                        : 796
Stream size                              : 26.7 KiB (0%)
Title                                    : SDH
Language                                 : English
Default                                  : No
Forced                                   : No



Скриншоты:
[+] Всего файлов в раздаче - 1:
Calibre.2018.720p.NF.MVO.WEBRip.mkv2.12 GB

Текущая раздача:
ДатаКомментарии    РазмерПиры
2018-07-13 U Калибр / Calibre (2018) WEBRip 720p | HDRezka Studio 2.12 GB ↑ 163 ↓ 78

Похожие раздачи по запросу - калибр:
2018-07-17 U Калибр / Calibre (2018) WEBRip от R.G.Resident | HDRezka Studio 739.55 MB ↑ 44 ↓ 33
2018-07-13 U Калибр / Calibre (2018) WEBRip от R.G.Resident | HDRezka Studio 1.46 GB ↑ 247 ↓ 117
2018-07-13 U Калибр / Calibre (2018) WEB-DLRip 1080p | HDrezka Studio 1К3.48 GB ↑ 267 ↓ 137
2018-07-09 U Калибр / Calibre (2018) WEBRip | L2 1.36 GB ↑ 246 ↓ 66
2018-07-09 U Калибр / Calibre (2018) WEBRip 720p | L2 3.44 GB ↑ 204 ↓ 76
2017-09-05 U Крупный калибр / Big Guns - Tony Arzenta (1973) DVDRip-AVC от ExKinoRay | P 2.98 GB ↑ 89 ↓ 28

Отзывы
Зарегистрируйтесь чтобы добавить комментарий.
Обратная связь
Copyleft ©