↑↓Torrent.by
Поиск
Логин: Регистрация
Пароль: Восстановить пароль
Загрузка...

Я худею (2018) BDRip | Лицензия

Скачать ya-hudeyu-2018-bdrip-licenziya.torrent
U Магнитная ссылка Размер: 1.46 GB Раздают: 106 Качают: 72 Добавлен: 2018-07-14 14:23:28
Я худею (2018) BDRip | Лицензия

Название: Я худею
Год выхода: 2018
Жанр: Комедия
Страна: Россия
Перевод: Не требуется
Продолжительность: 01:42:40
Режиссер: Алексей Нужный
В ролях: Александра Бортич, Ирина Горбачева, Сергей Шнуров, Евгений Кулик, Роман Курцын, Александр Пташенчук, Елена Валюшкина, Валерия Дергилева, Андрей Трушин, Олег Кассин и др.

О фильме: В жизни Ани есть две главные любви — её парень Женя и еда. Из-за еды они и расстаются: Жене совсем не нравится, как Аня стала выглядеть. Аня не готова просто сдаться. При поддержке лучшей подруги и увлечённого здоровым образом жизни добряка Коли она пускается в увлекательное приключение, чтобы похудеть и обрести любовь и счастье.

Файл
Формат: AVI
Качество: BDRip
Видео: Xvid, 720x320, ~1581 kbps, 24,000 fps
Звук: русский, AC3 5.1, 48 kHz, 448 kbps | Лицензия
Субтитры: нет


[+] MI
General
Полное имя                               : F:TorrentJaHudeyuBDRipAVI.avi
Формат                                   : AVI
Формат/Информация                        : Audio Video Interleave
Размер файла                             : 1.46 GiB
Продолжительность                        : 1 h 42 min
Общий поток                              : 2 038 kb/s
Библиотека кодирования                   : VirtualDub build 35491/release

Video
Идентификатор                            : 0
Формат                                   : MPEG-4 Visual
Профиль формата                          : Advanced Simple@L5
Настройки формата                        : BVOP2 / Custom Matrix
Параметр BVOP формата                    : 2
Параметр QPel формата                    : No
Параметр GMC формата                     : No warppoints
Параметр матрицы формата                 : Custom
Идентификатор кодека                     : XVID
Идентификатор кодека/Подсказка           : XviD
Продолжительность                        : 1 h 42 min
Битрейт                                  : 1 581 kb/s
Ширина                                   : 720 pixels
Высота                                   : 320 pixels
Соотношение сторон                       : 2.25:1
Частота кадров                           : 24.000 FPS
Цветовое пространство                    : YUV
Субдискретизация насыщенности            : 4:2:0
Битовая глубина                          : 8 bits
Тип развёртки                            : Progressive
Метод сжатия                             : Lossy
Бит/(Пиксели*Кадры)                      : 0.286
Размер потока                            : 1.13 GiB (78%)
Библиотека кодирования                   : XviD 67

Audio
Идентификатор                            : 1
Формат                                   : AC-3
Формат/Информация                        : Audio Coding 3
Идентификатор кодека                     : 2000
Продолжительность                        : 1 h 42 min
Вид битрейта                             : Constant
Битрейт                                  : 448 kb/s
Каналы                                   : 6 channels
Расположение каналов                     : Front: L C R, Side: L R, LFE
Частота                                  : 48.0 kHz
Частота кадров                           : 31.250 FPS (1536 SPF)
Битовая глубина                          : 16 bits
Метод сжатия                             : Lossy
Размер потока                            : 329 MiB (22%)
Выравнивание                             : Aligned on interleaves
Продолжительность промежутка             : 42  ms (1.00 video frame)
Время предзагрузки промежутка            : 512  ms




Скриншоты:
[+] Всего файлов в раздаче - 1:
JaHudeyuBDRipAVI.avi1.46 GB

Текущая раздача:
ДатаКомментарии    РазмерПиры
2018-07-14 U Я худею (2018) BDRip | Лицензия 1.46 GB ↑ 106 ↓ 72

Показать еще раздачи по запросу худею:
2018-07-21 U Я худею (2018) BDRip 720p от HELLYWOOD | Лицензия 4.37 GB ↑ 57 ↓ 27
2018-07-21 U Я худею (2018) BDRip от MegaPeer | Лицензия 1.46 GB ↑ 62 ↓ 6
2018-07-21 U Я худею (2018) BDRip от ExKinoRay | Лицензия 1.46 GB ↑ 38 ↓ 8
2018-07-19 U Я худею (2018) HDRip-AVC от ExKinoRay | Лицензия 1.70 GB ↑ 226 ↓ 10
2018-07-16 U Я худею (2018) HDRip от Scarabey | Лицензия 1.45 GB ↑ 79 ↓ 26
2018-07-15 U Я худею (2018) HDRip от GeneralFilm | Лицензия 745.31 MB ↑ 93 ↓ 15
2018-07-15 U Я худею (2018) BDRip-AVC | Лицензия 2.18 GB ↑ 135 ↓ 16

Отзывы
Зарегистрируйтесь чтобы добавить комментарий.
Обратная связь
Copyleft ©