↑↓Torrent.by
Поиск
Логин: Регистрация
Пароль: Восстановить пароль
Загрузка...

Я худею (2018) BDRip 720p | Лицензия

Скачать ya-hudeyu-2018-bdrip-720p-licenziya.torrent
U Магнитная ссылка Размер: 5.47 GB Раздают: 80 Качают: 27 Добавлен: 2018-07-15 07:20:41
Я худею (2018) BDRip 720p | Лицензия

Название: Я худею
Год выхода: 2018
Жанр: Комедия
Страна: Россия
Перевод: Не требуется
Продолжительность: 01:42:40
Режиссер: Алексей Нужный
В ролях: Александра Бортич, Ирина Горбачева, Сергей Шнуров, Евгений Кулик, Роман Курцын, Александр Пташенчук, Елена Валюшкина, Валерия Дергилева, Андрей Трушин, Олег Кассин и др.

О фильме: В жизни Ани есть две главные любви — её парень Женя и еда. Из-за еды они и расстаются: Жене совсем не нравится, как Аня стала выглядеть. Аня не готова просто сдаться. При поддержке лучшей подруги и увлечённого здоровым образом жизни добряка Коли она пускается в увлекательное приключение, чтобы похудеть и обрести любовь и счастье.

Файл
Качество: BDRip 720p
Видео: MPEG-4 AVC, 1280x574, 5500 kbps, 24,000 fps
Звук#1: русский, DTS 5.1, 48 kHz, 1509 kbps | Лицензия
Звук#2: русский, AC3 5.1, 48 kHz, 640 kbps | Лицензия
Субтитры: нет


[+] MI
General
Уникальный идентификатор                 : 201827883646573406050323137687123588918 (0x97D6A2EFE05DC974B28F3054FED2F736)
Полное имя                               : F:TorrentJaHudeyuBDRip720p.mkv
Формат                                   : Matroska
Версия формата                           : Version 4 / Version 2
Размер файла                             : 5.47 GiB
Продолжительность                        : 1 h 42 min
Общий поток                              : 7 633 kb/s
Дата кодирования                         : UTC 2018-07-14 07:56:32
Программа кодирования                    : mkvmerge v9.5.0 ('Quiet Fire') 64bit
Библиотека кодирования                   : libebml v1.3.4 + libmatroska v1.4.5

Video
Идентификатор                            : 1
Формат                                   : AVC
Формат/Информация                        : Advanced Video Codec
Профиль формата                          : High@L4.1
Настройки формата                        : CABAC / 9 Ref Frames
Параметр CABAC формата                   : Yes
Параметр RefFrames формата               : 9 frames
Идентификатор кодека                     : V_MPEG4/ISO/AVC
Продолжительность                        : 1 h 42 min
Битрейт                                  : 5 500 kb/s
Ширина                                   : 1 280 pixels
Высота                                   : 574 pixels
Соотношение сторон                       : 2.25:1
Режим частоты кадров                     : Constant
Частота кадров                           : 24.000 FPS
Цветовое пространство                    : YUV
Субдискретизация насыщенности            : 4:2:0
Битовая глубина                          : 8 bits
Тип развёртки                            : Progressive
Бит/(Пиксели*Кадры)                      : 0.312
Размер потока                            : 3.93 GiB (72%)
Библиотека кодирования                   : x264 core 155 r2901M 7d0ff22
Настройки программы                      : cabac=1 / ref=9 / deblock=1:-3:-3 / analyse=0x3:0x133 / me=umh / subme=11 / psy=1 / psy_rd=1.00:0.00 / mixed_ref=1 / me_range=48 / chroma_me=1 / trellis=2 / 8x8dct=1 / cqm=0 / deadzone=21,11 / fast_pskip=0 / chroma_qp_offset=-2 / threads=9 / lookahead_threads=2 / sliced_threads=0 / nr=0 / decimate=0 / interlaced=0 / bluray_compat=0 / constrained_intra=0 / bframes=10 / b_pyramid=2 / b_adapt=2 / b_bias=0 / direct=3 / weightb=1 / open_gop=0 / weightp=2 / keyint=240 / keyint_min=10 / scenecut=40 / intra_refresh=0 / rc_lookahead=120 / rc=2pass / mbtree=0 / bitrate=5500 / ratetol=1.0 / qcomp=0.70 / qpmin=0 / qpmax=69 / qpstep=4 / cplxblur=20.0 / qblur=0.5 / vbv_maxrate=50000 / vbv_bufsize=62500 / nal_hrd=none / filler=0 / ip_ratio=1.40 / pb_ratio=1.30 / aq=3:0.80
Default                                  : Yes
Forced                                   : No
Цветовой диапазон                        : Limited
Основные цвета                           : BT.709
Характеристики трансфера                 : BT.709
Коэффициенты матрицы                     : BT.709

Audio #1
Идентификатор                            : 2
Формат                                   : DTS
Формат/Информация                        : Digital Theater Systems
Идентификатор кодека                     : A_DTS
Продолжительность                        : 1 h 42 min
Вид битрейта                             : Constant
Битрейт                                  : 1 509 kb/s
Каналы                                   : 6 channels
Расположение каналов                     : Front: L C R, Side: L R, LFE
Частота                                  : 48.0 kHz
Частота кадров                           : 93.750 FPS (512 SPF)
Битовая глубина                          : 24 bits
Метод сжатия                             : Lossy
Размер потока                            : 1.08 GiB (20%)
Язык                                     : Russian
Default                                  : Yes
Forced                                   : No

Audio #2
Идентификатор                            : 3
Формат                                   : AC-3
Формат/Информация                        : Audio Coding 3
Идентификатор кодека                     : A_AC3
Продолжительность                        : 1 h 42 min
Вид битрейта                             : Constant
Битрейт                                  : 640 kb/s
Каналы                                   : 6 channels
Расположение каналов                     : Front: L C R, Side: L R, LFE
Частота                                  : 48.0 kHz
Частота кадров                           : 31.250 FPS (1536 SPF)
Битовая глубина                          : 16 bits
Метод сжатия                             : Lossy
Размер потока                            : 470 MiB (8%)
Язык                                     : Russian
Default                                  : No
Forced                                   : No

Menu
00:00:00.000                             : en:Chapter 1
00:01:17.333                             : en:Chapter 2
00:12:28.125                             : en:Chapter 3
00:23:17.083                             : en:Chapter 4
00:31:58.791                             : en:Chapter 5
00:45:29.125                             : en:Chapter 6
00:56:08.125                             : en:Chapter 7
01:10:30.666                             : en:Chapter 8
01:26:25.708                             : en:Chapter 9




Скриншоты:
[+] Всего файлов в раздаче - 1:
JaHudeyuBDRip720p.mkv5.47 GB

Текущая раздача:
ДатаКомментарии    РазмерПиры
2018-07-15 U Я худею (2018) BDRip 720p | Лицензия 5.47 GB ↑ 80 ↓ 27

Показать еще раздачи по запросу худею:
2018-07-21 U Я худею (2018) BDRip 720p от HELLYWOOD | Лицензия 4.37 GB ↑ 57 ↓ 27
2018-07-21 U Я худею (2018) BDRip от MegaPeer | Лицензия 1.46 GB ↑ 62 ↓ 6
2018-07-21 U Я худею (2018) BDRip от ExKinoRay | Лицензия 1.46 GB ↑ 38 ↓ 8
2018-07-19 U Я худею (2018) HDRip-AVC от ExKinoRay | Лицензия 1.70 GB ↑ 226 ↓ 10
2018-07-16 U Я худею (2018) HDRip от Scarabey | Лицензия 1.45 GB ↑ 79 ↓ 26
2018-07-15 U Я худею (2018) HDRip от GeneralFilm | Лицензия 745.31 MB ↑ 93 ↓ 15
2018-07-15 U Я худею (2018) BDRip-AVC | Лицензия 2.18 GB ↑ 135 ↓ 16

Отзывы
Зарегистрируйтесь чтобы добавить комментарий.
Обратная связь
Copyleft ©