↑↓Torrent.by
Поиск
Логин: Регистрация
Пароль: Восстановить пароль
Загрузка...

Танки (2018) BDRip | Лицензия

Скачать tanki-2018-bdrip-licenziya.torrent
U Магнитная ссылка Размер: 1.46 GB Раздают: 114 Качают: 76 Добавлен: 2018-07-15 17:03:59
Танки (2018) BDRip | Лицензия

Название: Танки
Год выхода: 2018
Жанр: Приключения, история, военный
Страна: Россия
Перевод: Не требуется
Продолжительность: 01:33:05
Режиссер: Ким Дружинин
В ролях: Андрей Мерзликин, Аглая Тарасова, Сергей Стукалов, Антон Филипенко, Алексей Овсянников, Дмитрий Поднозов, Георги Майсурадзе, Владимир Верёвочкин, Дмитрий Цуцкин, Андрей Дежонов и др.

О фильме: На пороге войны с фашистской Германией инженер Михаил Кошкин разрабатывает прототип нового инновационного танка Т-34. Чтобы доказать уникальность боевой машины, Кошкин и его команда отправляются в Москву на танках своим ходом. Но вскоре пробег превращается в непредсказуемую гонку, где бездорожье лишь меньшее из зол… Пройдя череду опасных приключений и благодаря безупречным техническим и боевым качествам новых танков, героям удается одержать верх над преследователями и доказать превосходство Т-34.

Файл
Формат: AVI
Качество: BDRip
Видео: Xvid, 720x320, ~1783 kbps, 24,000 fps
Звук: русский, AC3 5.1, 48 kHz, 448 kbps | Лицензия
Субтитры: нет


[+] MI
General
Полное имя                               : F:TorrentTankiBDRipAVI.avi
Формат                                   : AVI
Формат/Информация                        : Audio Video Interleave
Размер файла                             : 1.46 GiB
Продолжительность                        : 1 h 33 min
Общий поток                              : 2 240 kb/s
Библиотека кодирования                   : VirtualDub build 35491/release

Video
Идентификатор                            : 0
Формат                                   : MPEG-4 Visual
Профиль формата                          : Advanced Simple@L5
Настройки формата                        : BVOP2 / Custom Matrix
Параметр BVOP формата                    : 2
Параметр QPel формата                    : No
Параметр GMC формата                     : No warppoints
Параметр матрицы формата                 : Custom
Идентификатор кодека                     : XVID
Идентификатор кодека/Подсказка           : XviD
Продолжительность                        : 1 h 33 min
Битрейт                                  : 1 783 kb/s
Ширина                                   : 720 pixels
Высота                                   : 320 pixels
Соотношение сторон                       : 2.25:1
Частота кадров                           : 24.000 FPS
Цветовое пространство                    : YUV
Субдискретизация насыщенности            : 4:2:0
Битовая глубина                          : 8 bits
Тип развёртки                            : Progressive
Метод сжатия                             : Lossy
Бит/(Пиксели*Кадры)                      : 0.322
Размер потока                            : 1.16 GiB (80%)
Библиотека кодирования                   : XviD 67

Audio
Идентификатор                            : 1
Формат                                   : AC-3
Формат/Информация                        : Audio Coding 3
Идентификатор кодека                     : 2000
Продолжительность                        : 1 h 33 min
Вид битрейта                             : Constant
Битрейт                                  : 448 kb/s
Каналы                                   : 6 channels
Расположение каналов                     : Front: L C R, Side: L R, LFE
Частота                                  : 48.0 kHz
Частота кадров                           : 31.250 FPS (1536 SPF)
Битовая глубина                          : 16 bits
Метод сжатия                             : Lossy
Размер потока                            : 298 MiB (20%)
Выравнивание                             : Aligned on interleaves
Продолжительность промежутка             : 42  ms (1.00 video frame)
Время предзагрузки промежутка            : 512  ms




Скриншоты:
[+] Всего файлов в раздаче - 1:
TankiBDRipAVI.avi1.46 GB

Текущая раздача:
ДатаКомментарии    РазмерПиры
2018-07-15 U Танки (2018) BDRip | Лицензия 1.46 GB ↑ 114 ↓ 76

Показать еще раздачи по запросу танки:
2018-07-30 U Танки (2018) BDRip-HEVC 1080p от ХиМиК 6.42 GB ↑ 119 ↓ 39
2018-07-21 U Танки (2018) BDRip-AVC от OlLanDGroup | Лицензия 1.46 GB ↑ 163 ↓ 41
2018-07-21 U Танки (2018) BDRip от ExKinoRay | Лицензия 1.46 GB ↑ 118 ↓ 6
2018-07-19 U Танки (2018) BDRip от MegaPeer | Лицензия 1.46 GB ↑ 71 ↓ 41
2018-07-18 U Танки (2018) HDRip от GeneralFilm | Лицензия 745.07 MB ↑ 94 ↓ 15
2018-07-16 U Танки (2018) BDRip-AVC | Лицензия 2.06 GB ↑ 78 ↓ 21
2018-07-16 U Танки (2018) BDRip 720p | Лицензия 4.97 GB ↑ 76 ↓ 24

Отзывы
Зарегистрируйтесь чтобы добавить комментарий.
Обратная связь
Copyleft ©