↑↓Torrent.by
Поиск
Логин: Регистрация
Пароль: Восстановить пароль
Загрузка...

Танки (2018) BDRip-AVC | Лицензия

Скачать tanki-2018-bdrip-avc-licenziya.torrent
U Магнитная ссылка Размер: 2.06 GB Раздают: 63 Качают: 20 Добавлен: 2018-07-16 07:42:37
Танки (2018) BDRip-AVC | Лицензия

Название: Танки
Год выхода: 2018
Жанр: Приключения, история, военный
Страна: Россия
Перевод: Не требуется
Продолжительность: 01:33:05
Режиссер: Ким Дружинин
В ролях: Андрей Мерзликин, Аглая Тарасова, Сергей Стукалов, Антон Филипенко, Алексей Овсянников, Дмитрий Поднозов, Георги Майсурадзе, Владимир Верёвочкин, Дмитрий Цуцкин, Андрей Дежонов и др.

О фильме: На пороге войны с фашистской Германией инженер Михаил Кошкин разрабатывает прототип нового инновационного танка Т-34. Чтобы доказать уникальность боевой машины, Кошкин и его команда отправляются в Москву на танках своим ходом. Но вскоре пробег превращается в непредсказуемую гонку, где бездорожье лишь меньшее из зол… Пройдя череду опасных приключений и благодаря безупречным техническим и боевым качествам новых танков, героям удается одержать верх над преследователями и доказать превосходство Т-34.

Файл
Формат: MKV
Качество: BDRip-AVC
Видео: MPEG-4 AVC, 1024x456, ~2520 kbps, 24,000 fps
Звук: русский, AC3 5.1, 48 kHz, 640 kbps | Лицензия
Субтитры: нет


[+] MI
General
Уникальный идентификатор                 : 209222048052286223876688642382834072653 (0x9D66B3637FE11C03B6E78337F3AA7C4D)
Полное имя                               : F:TorrentTankiBDRipAVC.mkv
Формат                                   : Matroska
Версия формата                           : Version 4 / Version 2
Размер файла                             : 2.06 GiB
Продолжительность                        : 1 h 33 min
Общий поток                              : 3 162 kb/s
Дата кодирования                         : UTC 2018-07-14 15:07:01
Программа кодирования                    : mkvmerge v9.5.0 ('Quiet Fire') 64bit
Библиотека кодирования                   : libebml v1.3.4 + libmatroska v1.4.5

Video
Идентификатор                            : 1
Формат                                   : AVC
Формат/Информация                        : Advanced Video Codec
Профиль формата                          : High@L4.1
Настройки формата                        : CABAC / 10 Ref Frames
Параметр CABAC формата                   : Yes
Параметр RefFrames формата               : 10 frames
Идентификатор кодека                     : V_MPEG4/ISO/AVC
Продолжительность                        : 1 h 33 min
Битрейт                                  : 2 520 kb/s
Ширина                                   : 1 024 pixels
Высота                                   : 456 pixels
Соотношение сторон                       : 2.25:1
Режим частоты кадров                     : Constant
Частота кадров                           : 24.000 FPS
Цветовое пространство                    : YUV
Субдискретизация насыщенности            : 4:2:0
Битовая глубина                          : 8 bits
Тип развёртки                            : Progressive
Бит/(Пиксели*Кадры)                      : 0.225
Размер потока                            : 1.64 GiB (80%)
Библиотека кодирования                   : x264 core 155 r2901M 7d0ff22
Настройки программы                      : cabac=1 / ref=10 / deblock=1:-3:-3 / analyse=0x3:0x133 / me=umh / subme=11 / psy=1 / psy_rd=1.00:0.00 / mixed_ref=1 / me_range=48 / chroma_me=1 / trellis=2 / 8x8dct=1 / cqm=0 / deadzone=21,11 / fast_pskip=0 / chroma_qp_offset=-2 / threads=5 / lookahead_threads=1 / sliced_threads=0 / nr=0 / decimate=0 / interlaced=0 / bluray_compat=0 / constrained_intra=0 / bframes=10 / b_pyramid=2 / b_adapt=2 / b_bias=0 / direct=3 / weightb=1 / open_gop=0 / weightp=2 / keyint=240 / keyint_min=24 / scenecut=40 / intra_refresh=0 / rc_lookahead=120 / rc=2pass / mbtree=0 / bitrate=2520 / ratetol=1.0 / qcomp=0.70 / qpmin=0 / qpmax=69 / qpstep=4 / cplxblur=20.0 / qblur=0.5 / vbv_maxrate=62500 / vbv_bufsize=78125 / nal_hrd=none / filler=0 / ip_ratio=1.40 / pb_ratio=1.30 / aq=1:1.00
Default                                  : Yes
Forced                                   : No
Цветовой диапазон                        : Limited
Основные цвета                           : BT.709
Характеристики трансфера                 : BT.709
Коэффициенты матрицы                     : BT.709

Audio
Идентификатор                            : 2
Формат                                   : AC-3
Формат/Информация                        : Audio Coding 3
Идентификатор кодека                     : A_AC3
Продолжительность                        : 1 h 33 min
Вид битрейта                             : Constant
Битрейт                                  : 640 kb/s
Каналы                                   : 6 channels
Расположение каналов                     : Front: L C R, Side: L R, LFE
Частота                                  : 48.0 kHz
Частота кадров                           : 31.250 FPS (1536 SPF)
Битовая глубина                          : 16 bits
Метод сжатия                             : Lossy
Размер потока                            : 426 MiB (20%)
Язык                                     : Russian
Default                                  : Yes
Forced                                   : No

Menu
00:00:00.000                             : en:Chapter 1
00:01:13.416                             : en:Chapter 2
00:10:40.416                             : en:Chapter 3
00:20:29.583                             : en:Chapter 4
00:32:30.208                             : en:Chapter 5
00:44:52.791                             : en:Chapter 6
00:57:32.791                             : en:Chapter 7
01:07:56.666                             : en:Chapter 8
01:20:44.583                             : en:Chapter 9




[+] Исходник
http://multi-up.com/1203826



Скриншоты:
[+] Всего файлов в раздаче - 1:
TankiBDRipAVC.mkv2.06 GB

Текущая раздача:
ДатаКомментарии    РазмерПиры
2018-07-16 U Танки (2018) BDRip-AVC | Лицензия 2.06 GB ↑ 63 ↓ 20

Показать еще раздачи по запросу танки:
2018-07-30 U Танки (2018) BDRip-HEVC 1080p от ХиМиК 6.42 GB ↑ 53 ↓ 35
2018-07-21 U Танки (2018) BDRip-AVC от OlLanDGroup | Лицензия 1.46 GB ↑ 94 ↓ 34
2018-07-21 U Танки (2018) BDRip от ExKinoRay | Лицензия 1.46 GB ↑ 65 ↓ 6
2018-07-19 U Танки (2018) BDRip от MegaPeer | Лицензия 1.46 GB ↑ 71 ↓ 39
2018-07-18 U Танки (2018) HDRip от GeneralFilm | Лицензия 745.07 MB ↑ 86 ↓ 14
2018-07-16 U Танки (2018) BDRip 720p | Лицензия 4.97 GB ↑ 73 ↓ 24
2018-07-16 U Танки (2018) BDRip 1080p | Лицензия 7.90 GB ↑ 182 ↓ 54

Отзывы
Зарегистрируйтесь чтобы добавить комментарий.
Обратная связь
Copyleft ©