↑↓Torrent.by
Поиск
Логин: Регистрация
Пароль: Восстановить пароль
Загрузка...

Садко (2017) WEB-DLRip-AVC от OlLanDGroup | iTunes

Скачать sadko-2017-web-dlrip-avc-ot-ollandgroup-itunes.torrent
U Магнитная ссылка Размер: 745.70 MB Раздают: 78 Качают: 22 Добавлен: 2018-07-16 11:51:02
Садко (2017) WEB-DLRip-AVC от OlLanDGroup | iTunes

Садко
«Окунись в новое приключение»

Год выпуска: 2017
Страна:  Россия
Производство:  Кинокомпания СТВ, Анимационная студия Мельница
Жанр:  Мультфильм, комедия, семейный

Режиссёр: Максим Волков, Виталий Мухаметзянов
Роли озвучивают: : Тимур Гарипов, Любовь Аксенова, Екатерина Варнава, Мария Шалаева, Михаил Ефремов, Дмитрий Филимонов, Данис Галиуллин, Руслан Ронич, Анатолий Константинов, Диомид Виноградов

Перевод: Не требуется
Субтитры: Нет
Реклама: Отсутствует

Описание:  Хоть беги, хоть не беги, а от любви нигде не скрыться. Ни в палатах новгородского князя, ни на дне морском. Особенно, если зовут тебя Садко, и ты симпатичный веселый парень. К тому же, на гуслях играть мастак. Вот только за настоящую любовь еще и повоевать придется. Да не с кем-нибудь, а с подводной ведьмой Барракудой. Но любовь все равно победит. Вот увидите!

Качество: WEB-DLRip-AVC
Продолжительность:  01:17:50

Формат: MKV
Видео кодек: MPEG-4 AVC
Аудио кодек: AC3
Видео: 720x302 (2,40:1), 25,000 fps, x264 ~954 kbps avg, 0.175 bit/pixel
Аудио:  48 kHz, AC3 Dolby Digital, 3/2 (L,C,R,l,r) + LFE ch, ~384.00 kbps avg | RUS

Релиз: Rip by:


[+] MediaInfo

Общее
Уникальный идентификатор                 : 194313839712282644298504976527711584691 (0x922F7BF7E0E0CAE7C890D7993910C1B3)
Полное имя                               : D:Видеоsadko_2017. x264.WEB-DLRip.(AVC).OlLanDGroup.mkv
Формат                                   : Matroska
Версия формата                           : Version 4 / Version 2
Размер файла                             : 746 Мбайт
Продолжительность                        : 1 ч. 17 м.
Общий поток                              : 1339 Кбит/сек
Название фильма                          : Sadko_2017. x264.WEB-DLRip.(AVC).OlLanDGroup
Дата кодирования                         : UTC 2018-07-14 13:22:39
Программа кодирования                    : mkvmerge v23.0.0 ('The Bride Said No') 64-bit
Библиотека кодирования                   : libebml v1.3.6 + libmatroska v1.4.9
DURATION                                 : 01:17:50.016000000
NUMBER_OF_FRAMES                         : 145938
NUMBER_OF_BYTES                          : 224160768
_STATISTICS_WRITING_APP                  : mkvmerge v23.0.0 ('The Bride Said No') 64-bit
_STATISTICS_WRITING_DATE_UTC             : 2018-07-14 13:22:39
_STATISTICS_TAGS                         : BPS DURATION NUMBER_OF_FRAMES NUMBER_OF_BYTES
Attachment                               : Yes

Видео
Идентификатор                            : 1
Формат                                   : AVC
Формат/Информация                        : Advanced Video Codec
Профиль формата                          : High@L4.1
Параметр CABAC формата                   : Да
Параметр ReFrames формата                : 9 кадров
Идентификатор кодека                     : V_MPEG4/ISO/AVC
Продолжительность                        : 1 ч. 17 м.
Битрейт                                  : 954 Кбит/сек
Ширина                                   : 720 пикселей
Высота                                   : 302 пикселя
Соотношение сторон                       : 2,40:1
Режим частоты кадров                     : Постоянный
Частота кадров                           : 25,000 кадров/сек
Цветовое пространство                    : YUV
Субдискретизация насыщенности            : 4:2:0
Битовая глубина                          : 8 бит
Тип развёртки                            : Прогрессивная
Бит/(Пиксели*Кадры)                      : 0.175
Размер потока                            : 517 Мбайт (69%)
Заголовок                                : Sadko_2017. x264.
Библиотека кодирования                   : x264 core 146 r2538 121396c
Настройки программы                      : cabac=1 / ref=9 / deblock=1:-3:-3 / analyse=0x3:0x133 / me=umh / subme=11 / psy=1 / psy_rd=1.00:0.00 / mixed_ref=1 / me_range=32 / chroma_me=1 / trellis=2 / 8x8dct=1 / cqm=0 / deadzone=21,11 / fast_pskip=0 / chroma_qp_offset=-2 / threads=6 / lookahead_threads=1 / sliced_threads=0 / nr=0 / decimate=0 / interlaced=0 / bluray_compat=0 / constrained_intra=0 / bframes=10 / b_pyramid=2 / b_adapt=1 / b_bias=0 / direct=3 / weightb=1 / open_gop=0 / weightp=2 / keyint=250 / keyint_min=25 / scenecut=40 / intra_refresh=0 / rc_lookahead=40 / rc=2pass / mbtree=0 / bitrate=954 / ratetol=1.0 / qcomp=0.60 / qpmin=0 / qpmax=69 / qpstep=4 / cplxblur=20.0 / qblur=0.5 / vbv_maxrate=50000 / vbv_bufsize=52500 / nal_hrd=none / filler=0 / ip_ratio=1.40 / pb_ratio=1.30 / aq=1:1.00
Default                                  : Да
Forced                                   : Нет

Аудио
Идентификатор                            : 2
Формат                                   : AC-3
Формат/Информация                        : Audio Coding 3
Расширение режима                        : CM (complete main)
Параметр Endianness формата              : Big
Идентификатор кодека                     : A_AC3
Продолжительность                        : 1 ч. 17 м.
Вид битрейта                             : Постоянный
Битрейт                                  : 384 Кбит/сек
Каналы                                   : 6 каналов
Расположение каналов                     : Front: L C R, Side: L R, LFE
Частота                                  : 48,0 КГц
Битовая глубина                          : 16 бит
Метод сжатия                             : С потерями
Размер потока                            : 214 Мбайт (29%)
Язык                                     : Russian
Default                                  : Да
Forced                                   : Нет

Меню
00:00:00.000                             : en:Глава 1
00:03:48.120                             : en:Глава 2
00:09:16.920                             : en:Глава 3
00:15:20.040                             : en:Глава 4
00:21:35.040                             : en:Глава 5
00:27:05.560                             : en:Глава 6
00:32:45.280                             : en:Глава 7
00:38:49.280                             : en:Глава 8
00:45:06.080                             : en:Глава 9
00:51:28.040                             : en:Глава 10
00:56:01.440                             : en:Глава 11
01:01:33.000                             : en:Глава 12
01:07:03.440                             : en:Глава 13




Скриншоты:
[+] Всего файлов в раздаче - 1:
sadko_2017. x264.WEB-DLRip.(AVC).OlLanDGroup.mkv745.70 MB

Текущая раздача:
ДатаКомментарии    РазмерПиры
2018-07-16 U Садко (2017) WEB-DLRip-AVC от OlLanDGroup | iTunes 1 К 745.70 MB ↑ 78 ↓ 22

Похожие раздачи по запросу - садко:
2018-08-08 U Садко (2017) WEB-DL 720p | iTunes 2.47 GB ↑ 25 ↓ 10
2018-07-13 U Садко (2017) WEB-DLRip от GeneralFilm | iTunes 1.09 GB ↑ 214 ↓ 23
2018-07-11 U Садко (2017) WEB-DLRip от GeneralFilm | iTunes 744.08 MB ↑ 171 ↓ 58
2018-07-11 U Садко (2017) WEB-DL 1080p | iTunes 2.73 GB ↑ 615 ↓ 222
2015-12-26 U Садко (1952) DVDRip-AVC от New-Team 1.46 GB ↑ 72 ↓ 18

Отзывы
olesha
Спасибо большое за рип, формат, размер!

Зарегистрируйтесь чтобы добавить комментарий.
Обратная связь
Copyleft ©