↑↓Torrent.by
Поиск
Логин: Регистрация
Пароль: Восстановить пароль
Загрузка...

Три дня в Москве (1974) DVDRip-AVC от ExKinoRay

Скачать tri-dnya-v-moskve-1974-dvdrip-avc-ot-exkinoray.torrent
U Магнитная ссылка Размер: 2.13 GB Раздают: 42 Качают: 22 Добавлен: 2018-07-16 11:51:30
Три дня в Москве (1974) DVDRip-AVC от ExKinoRay

Название: Три дня в Москве
Год выхода: 1974
Жанр: Комедия
Режиссер: Алексей Коренев
В ролях: Семен Морозов, Станислав Садальский, Наталья Варлей, Евгений Весник, Валентина Сперантова, Анатолий Веденкин, Мария Коренева, Юрий Кузьменков, Иван Рыжов, Ирина Мурзаева, Леонид Чубаров, В.Обрезков, Р.Конюхова, Татьяна Красуская, Александр Фатюшин

О фильме:
Из Сибири в Москву прилетел молоденький милиционер Иван Федотов, выполнить поручение своего начальника: посмотреть Москву, и сразу попал в нелепую ситуацию, показался подозрительным одной бдительной гражданке, которая сдала милиционера в милицию. Там младший лейтенант очаровательная Оля во всем разобралась и оставила в душе парня неизгладимое впечатление. Так начались приключения столичного гостя…

Страна: СССР
Продолжительность: 02:07:12
Перевод: не требуется

Файл
Кодек: x264
Качество: DVDRip-AVC
Видео: MPEG-4 AVC, 2200 Кбит/с, 720x574@768x574
Звук: AC3, 2 ch, 192 Кбит/с

Релиз:
Автор релиза:
[+] Медиа-Инфо
raw [info]: 720x574p 16:15 @ 25/1 fps (cfr)
x264 [info]: using SAR=16/15
x264 [info]: using cpu capabilities: MMX2 SSE2Fast SSSE3 SSE4.2 AVX
x264 [info]: profile High, level 4.1
x264 [info]: frame I:1017  Avg QP:16.31  size: 64914
x264 [info]: frame P:47964 Avg QP:20.16  size: 24836
x264 [info]: frame B:141841 Avg QP:21.49  size:  5936
x264 [info]: consecutive B-frames:  3.1%  5.1% 12.7% 24.3% 22.4% 27.5%  3.5%  1.0%  0.2%  0.1%  0.0%  0.0%  0.0%  0.0%  0.0%  0.0%  0.0%
==========================================================================================================
Общее
Уникальный идентификатор                 : 170221109568361491655212784678685738206 (0x800F64A94F254C878ADFBDEF017184DE)
Полное имя                               : D:Три дня в Москве_1974-DVDRip-AVC.mkv
Формат                                   : Matroska
Версия формата                           : Version 2
Размер файла                             : 2,13 Гбайт
Продолжительность                        : 2 ч. 7 м.
Общий поток                              : 2394 Кбит/сек
Дата кодирования                         : UTC 2015-12-23 16:10:25
Программа кодирования                    : mkvmerge v5.8.0 ('No Sleep / Pillow') built on Sep  2 2012 15:37:04
Библиотека кодирования                   : libebml v1.2.3 + libmatroska v1.3.0

Видео
Идентификатор                            : 1
Формат                                   : AVC
Формат/Информация                        : Advanced Video Codec
Профиль формата                          : High@L4.1
Параметр CABAC формата                   : Да
Параметр ReFrames формата                : 16 кадров
Идентификатор кодека                     : V_MPEG4/ISO/AVC
Продолжительность                        : 2 ч. 7 м.
Битрейт                                  : 2200 Кбит/сек
Ширина                                   : 720 пикселей
Высота                                   : 574 пикселя
Соотношение сторон                       : 4:3
Режим частоты кадров                     : Постоянный
Частота кадров                           : 25,000 кадров/сек
Цветовое пространство                    : YUV
Субдискретизация насыщенности            : 4:2:0
Битовая глубина                          : 8 бит
Тип развёртки                            : Прогрессивная
Бит/(Пиксели*Кадры)                      : 0.213
Размер потока                            : 1,91 Гбайт (90%)
Библиотека кодирования                   : x264 core 148 r2638 7599210
Настройки программы                      : cabac=1 / ref=16 / deblock=1:-2:-2 / analyse=0x3:0x133 / me=umh / subme=10 / psy=1 / psy_rd=1.05:0.03 / mixed_ref=1 / me_range=32 / chroma_me=1 / trellis=2 / 8x8dct=1 / cqm=0 / deadzone=21,11 / fast_pskip=0 / chroma_qp_offset=-3 / threads=12 / lookahead_threads=3 / sliced_threads=0 / nr=0 / decimate=0 / interlaced=0 / bluray_compat=0 / constrained_intra=0 / bframes=16 / b_pyramid=2 / b_adapt=2 / b_bias=0 / direct=3 / weightb=1 / open_gop=0 / weightp=2 / keyint=250 / keyint_min=25 / scenecut=40 / intra_refresh=0 / rc=2pass / mbtree=0 / bitrate=2200 / ratetol=1.0 / qcomp=0.63 / qpmin=0 / qpmax=39 / qpstep=4 / cplxblur=20.0 / qblur=0.5 / ip_ratio=1.40 / pb_ratio=1.30 / aq=1:1.00
Язык                                     : English
Default                                  : Да
Forced                                   : Нет
Цветовой диапазон                        : Limited
Основные цвета                           : BT.601 PAL
Характеристики трансфера                 : BT.470 System M
Коэффициенты матрицы                     : BT.601

Аудио
Идентификатор                            : 2
Формат                                   : AC-3
Формат/Информация                        : Audio Coding 3
Расширение режима                        : CM (complete main)
Параметр Endianness формата              : Big
Идентификатор кодека                     : A_AC3
Продолжительность                        : 2 ч. 7 м.
Вид битрейта                             : Постоянный
Битрейт                                  : 192 Кбит/сек
Каналы                                   : 2 канала
Расположение каналов                     : Front: L R
Частота                                  : 48,0 КГц
Метод сжатия                             : С потерями
Размер потока                            : 175 Мбайт (8%)
Язык                                     : Russian
Default                                  : Да
Forced                                   : Нет



Скриншоты:
[+] Всего файлов в раздаче - 1:
Три дня в Москве_1974-DVDRip-AVC.mkv2.13 GB

Текущая раздача:
ДатаКомментарии    РазмерПиры
2018-07-16 U Три дня в Москве (1974) DVDRip-AVC от ExKinoRay 1 К 2.13 GB ↑ 42 ↓ 22

Показать еще раздачи по запросу москве:
2018-04-30 U ДДТ - Концерт в Москве [26.04] (2018) WEBRip 1080p 2.61 GB ↑ 112 ↓ 72
2017-12-23 U Мираж - Новогодний концерт в Москве (2017) CAMRip-AVC 1,004.59 MB ↑ 43 ↓ 14
2017-12-18 U Осведомлённый источник в Москве [01-04 из 04] (2009) WEBRip-AVC 2.89 GB ↑ 79 ↓ 30
2017-09-18 U МакSим - Сольный концерт в Москве "Это же я" (2017) WEB-DLRip 720p 1.54 GB ↑ 104 ↓ 46
2017-08-06 U Джой в Москве / Joy à Moscou / Joy in Moscow (1992) DVDRip | A 741.20 MB ↑ 297 ↓ 49
2017-04-30 U Группа «Машина времени». Концерт в Москве (26.04) (2017) HDTVRip 1080p 2.41 GB ↑ 1127 ↓ 8
2016-07-05 U Сектор Газа - Концерт в Москве (к-т Орион) (1997) VHSRip 4.00 GB ↑ 624 ↓ 6

Отзывы
styartlitl
Одна снежинка - ещё не снег.....
Большое спасибо!

Зарегистрируйтесь чтобы добавить комментарий.
Обратная связь
Copyleft ©