↑↓Torrent.by
Поиск
Логин: Регистрация
Пароль: Восстановить пароль
Загрузка...

Секса не будет!!! / Blockers (2018) BDRip 1080p | iTunes

Скачать seksa-ne-budet-blockers-2018-bdrip-1080p-itunes.torrent
U Магнитная ссылка Размер: 9.58 GB Раздают: 120 Качают: 78 Добавлен: 2018-07-19 05:23:19
Секса не будет!!! / Blockers (2018) BDRip 1080p | iTunes

Информация о фильме
Название: Секса не будет!!!
Оригинальное название: Blockers
Год выпуска: 2018
Жанр: комедия
Режиссер: Кэй Кэннон
В ролях: Лесли Манн, Айк Баринхолц, Джон Сина, Кэтрин Ньютон, Джина Гершон, Джун Рафаэль, Сарайю Рао, Гэри Коул, Грэм Филлипс, Хэннибал Бёресс

О фильме: Ни для кого не секрет, что выпускной вечер считается школьниками любой страны настоящим переломным моментом и самым подходящим временем для расставания с девственностью. Так что смотреть фильм рекомендуется и подросткам, и их родителям. Эти три девчонки дружили еще с самого детства, поэтому на последний вечер в школе они также решили прийти вместе. А еще у них заранее составленные более грандиозные планы, ведь в загадочную, увлекательную и зажигательную ночь после бала они планируют, наконец-то, стать взрослыми женщинами и заняться сексом в первый раз. Девчонки просто считают, что это будет неплохим окончанием школы, ведь их любимые парни уже давно не против перейти с подругами на новый и более чувственный уровень отношений. Но все эти сладкие грезы рухнут, словно песчаный домик под натиском прилива, когда о них узнают родители подруг. И они тут же подготовятся разрушить все планы дочек, так как уже понимают, насколько сильно первый неудачный секс может повлиять на всю оставшуюся жизнь. Так что этот школьный выпускной обещает стать самым непредсказуемым, ведь с одной стороны на него придут разгоряченные подростки, а с другой – разгневанные родители.

Страна: США
Студия: Point Grey Pictures, DMG Entertainment, Good Universe
Продолжительность: 01:41:56
Перевод: Дублированный | iTunes

Файл
Формат: MKV
Качество: BDRip 1080p
Видео: MPEG-4 AVC, 1920x804, 23.976 fps, 11300 kbps
Аудио RUS: AC3, 6 ch, 384 kbps
Аудио ENG: DTS, 6 ch, 1510 kbps
Субтитры: Английские

***Релиз: werecut PROD.


[+] MediaInfo
General
Unique ID                   : 203283780946793990485840635524276415815 (0x98EF083745608C98A36107BF4A45ED47)
Complete name               : F:ВидосикиBlockers.2018.bdriP.108Op.werecut.PROD.mkv
Format                      : Matroska
Format version              : Version 2
File size                   : 9.58 GiB
Duration                    : 1 h 41 min
Overall bit rate            : 13.4 Mb/s
Movie name                  : Blockers 2018 OT werecut PROD.
Encoded date                : UTC 2018-07-18 20:38:56
Writing application         : mkvmerge v2.9.9 ('Tutu') built on Nov 25 2009 21:13:32
Writing library             : libebml v0.7.9 + libmatroska v0.8.1

Video
ID                          : 1
Format                      : AVC
Format/Info                 : Advanced Video Codec
Format profile              : High@L4.1
Format settings             : CABAC / 5 Ref Frames
Format settings, CABAC      : Yes
Format settings, ReFrames   : 5 frames
Codec ID                    : V_MPEG4/ISO/AVC
Duration                    : 1 h 41 min
Bit rate                    : 11.3 Mb/s
Width                       : 1 920 pixels
Height                      : 804 pixels
Display aspect ratio        : 2.40:1
Frame rate mode             : Constant
Frame rate                  : 23.976 (24000/1001) FPS
Color space                 : YUV
Chroma subsampling          : 4:2:0
Bit depth                   : 8 bits
Scan type                   : Progressive
Bits/(Pixel*Frame)          : 0.305
Stream size                 : 8.04 GiB (84%)
Title                       : HDH
Writing library             : x264 core 142 r2431+42 c69a006 tMod [8-bit@4:2:0 X86_64]
Encoding settings           : cabac=1 / ref=5 / deblock=1:-3:-3 / analyse=0x3:0x113 / me=umh / subme=10 / psy=1 / fade_compensate=0.00 / psy_rd=1.00:0.05 / mixed_ref=1 / me_range=48 / chroma_me=1 / trellis=2 / 8x8dct=1 / cqm=0 / deadzone=21,11 / fast_pskip=0 / chroma_qp_offset=-2 / threads=48 / lookahead_threads=6 / sliced_threads=0 / nr=0 / decimate=1 / interlaced=0 / bluray_compat=0 / constrained_intra=0 / fgo=0 / bframes=8 / b_pyramid=2 / b_adapt=2 / b_bias=0 / direct=3 / weightb=1 / open_gop=0 / weightp=2 / keyint=250 / keyint_min=23 / scenecut=40 / intra_refresh=0 / rc_lookahead=40 / rc=crf / mbtree=0 / crf=17.3000 / qcomp=0.60 / qpmin=0:0:0 / qpmax=69:69:69 / qpstep=4 / vbv_maxrate=40000 / vbv_bufsize=30000 / crf_max=0.0 / nal_hrd=none / filler=0 / ip_ratio=1.40 / pb_ratio=1.30 / aq=3:0.80 / aq-sensitivity=10.00 / aq-factor=1.00:1.00:1.00 / aq2=0 / aq3=0
Language                    : English
Default                     : No
Forced                      : No
Color range                 : Limited
Matrix coefficients         : BT.709

Audio #1
ID                          : 2
Format                      : AC-3
Format/Info                 : Audio Coding 3
Codec ID                    : A_AC3
Duration                    : 1 h 41 min
Bit rate mode               : Constant
Bit rate                    : 384 kb/s
Channel(s)                  : 6 channels
Channel positions           : Front: L C R, Side: L R, LFE
Sampling rate               : 48.0 kHz
Frame rate                  : 31.250 FPS (1536 SPF)
Bit depth                   : 16 bits
Compression mode            : Lossy
Stream size                 : 280 MiB (3%)
Language                    : Russian
Service kind                : Complete Main
Default                     : Yes
Forced                      : Yes

Audio #2
ID                          : 3
Format                      : DTS
Format/Info                 : Digital Theater Systems
Codec ID                    : A_DTS
Duration                    : 1 h 41 min
Bit rate mode               : Constant
Bit rate                    : 1 509 kb/s
Channel(s)                  : 6 channels
Channel positions           : Front: L C R, Side: L R, LFE
Sampling rate               : 48.0 kHz
Frame rate                  : 93.750 FPS (512 SPF)
Bit depth                   : 24 bits
Compression mode            : Lossy
Stream size                 : 1.07 GiB (11%)
Language                    : English
Default                     : No
Forced                      : No

Text
ID                          : 4
Format                      : UTF-8
Codec ID                    : S_TEXT/UTF8
Codec ID/Info               : UTF-8 Plain Text
Language                    : English
Default                     : No
Forced                      : No

Menu
00:00:00.000                : en:00:00:00.000
00:02:50.087                : en:00:02:50.087
00:10:02.143                : en:00:10:02.143
00:14:50.139                : en:00:14:50.139
00:22:11.956                : en:00:22:11.956
00:26:09.109                : en:00:26:09.109
00:32:02.963                : en:00:32:02.963
00:35:18.450                : en:00:35:18.450
00:40:06.529                : en:00:40:06.529
00:44:33.546                : en:00:44:33.546
00:49:58.245                : en:00:49:58.245
00:55:14.770                : en:00:55:14.770
00:59:26.521                : en:00:59:26.521
01:05:34.472                : en:01:05:34.472
01:10:20.633                : en:01:10:20.633
01:15:47.001                : en:01:15:47.001
01:22:48.213                : en:01:22:48.213
01:26:38.819                : en:01:26:38.819
01:31:15.970                : en:01:31:15.970
01:34:08.560                : en:01:34:08.560



Скриншоты:
[+] Всего файлов в раздаче - 1:
Blockers.2018.bdriP.108Op.werecut.PROD.mkv9.58 GB

Текущая раздача:
ДатаКомментарии    РазмерПиры
2018-07-19 U Секса не будет!!! / Blockers (2018) BDRip 1080p | iTunes 9.58 GB ↑ 120 ↓ 78

Показать еще раздачи по запросу секса:
2018-08-17 U Секса не будет!!! / Blockers (2018) BDRip-AVC от HELLYWOOD | Лицензия 2.18 GB ↑ 37 ↓ 17
2018-08-11 U Секса не будет!!! / Blockers (2018) BDRip от ExKinoRay | Лицензия 1.46 GB ↑ 47 ↓ 15
2018-08-09 U Секса не будет!!! / Blockers (2018) BDRemux 1080p от ExKinoRay | Лицензия 23.48 GB ↑ 38 ↓ 24
2018-08-09 U Секса не будет!!! / Blockers (2018) BDRip 720p от HELLYWOOD | Лицензия 3.73 GB ↑ 34 ↓ 33
2018-08-09 U Секса не будет!!! / Blockers (2018) HDRip-AVC | Лицензия 745.17 MB ↑ 23 ↓ 6
2018-08-09 U Секса не будет!!! / Blockers (2018) BDRip-AVC от OlLanDGroup | D, P | Лицензия 1.77 GB ↑ 25 ↓ 6
2018-08-08 U Секса не будет!!! / Blockers (2018) BDRip 1080p от ExKinoRay | Лицензия 10.17 GB ↑ 67 ↓ 78

Отзывы
Зарегистрируйтесь чтобы добавить комментарий.
Обратная связь
Copyleft ©