↑↓Torrent.by
Поиск
Логин: Регистрация
Пароль: Восстановить пароль
Загрузка...

Жизнь прошла мимо (1958) SATRip-AVC от New-Team

Скачать zhizn-proshla-mimo-1958-satrip-avc-ot-new-team.torrent
U Магнитная ссылка Размер: 1.09 GB Раздают: 23 Качают: 3 Добавлен: 2018-07-19 05:25:03
Жизнь прошла мимо (1958) SATRip-AVC от New-Team

Страна: СССР
Производство: Мосфильм

Жанр:  драма
Год выпуска: 1958
Продолжительность: 01:25:15

Перевод: Не требуется
Cубтитры: нет
Оригинальная аудиодорожка: русский

Режиссер: Владимир Басов

В ролях:
Григорий Гай, Лилия Толмачёва, Юрий Саранцев, Николай Боголюбов, Елена Понсова, Игорь Безяев, Виталий Беляков, Глеб Стриженов, Римма Шорохова, Анатолий Ведёнкин, Леонид Довлатов, Станислав Коренев, Елизавета Кузюрина, Леонид Марков, Фёдор Одиноков, Николай Парфёнов, Татьяна Мухина...
Об актёрах подробней

Описание:
Николай Смирнов - вор-рецидивист по кличке "Акула", бежав из исправительно-трудовой колонии, вернулся в родной город и стал разыскивать дружков по воровским делам. Но за это время друзья повзрослели и теперь не хотят вспоминать прошлое. Потеряв уверенность в своих силах, он приходит к своей бывшей подруге и видит, что она воспитывает их сына. Потрясенный, Акула возвращается отбывать положенный срок, но смерть настигает его в лесных зарослях у самой колонии...
Критика приняла фильм "в штыки". Чуть ли не впервые главным героем советской картины стал уголовник, причём - не исправившийся. К тому же советская жизнь в картине была показана в невероятно мрачных тонах.

[url=http://www.imdb.com/title/tt0230996/" target="_blank">


[+] MediaInfo

Общее
Полное имя                               : Zhizn.proshla.mimo.1960.SATRip-AVC_[New-team]_by_AVP_Studio.mkv
Формат                                   : Matroska
Версия формата                           : Version 2
Размер файла                             : 1,09 Гбайт
Продолжительность                        : 1 ч. 25 м.
Общий поток                              : 1829 Кбит/сек
Дата кодирования                         : UTC 2018-07-14 18:22:15
Программа кодирования                    : mkvmerge v6.1.0 ('Old Devil') built on Mar  4 2013 09:10:42
Библиотека кодирования                   : libebml v1.3.0 + libmatroska v1.4.0

Видео
Идентификатор                            : 1
Формат                                   : AVC
Формат/Информация                        : Advanced Video Codec
Профиль формата                          : High@L4.1
Настройки формата                        : CABAC / 10 Ref Frames
Параметр CABAC формата                   : Да
Параметр RefFrames формата               : 10 кадров
Идентификатор кодека                     : V_MPEG4/ISO/AVC
Продолжительность                        : 1 ч. 25 м.
Битрейт                                  : 1635 Кбит/сек
Ширина                                   : 688 пикселей
Высота                                   : 572 пикселя
Соотношение сторон                       : 4:3
Режим частоты кадров                     : Постоянный
Частота кадров                           : 25,000 кадров/сек
Цветовое пространство                    : YUV
Субдискретизация насыщенности            : 4:2:0
Битовая глубина                          : 8 бит
Тип развёртки                            : Прогрессивная
Бит/(Пиксели*Кадры)                      : 0.166
Размер потока                            : 976 Мбайт (88%)
Библиотека кодирования                   : x264 core 130 r2273 b3065e6
Настройки программы                      : cabac=1 / ref=10 / deblock=1:-2:-1 / analyse=0x3:0x113 / me=umh / subme=10 / psy=1 / psy_rd=1.00:0.00 / mixed_ref=1 / me_range=32 / chroma_me=1 / trellis=2 / 8x8dct=1 / cqm=0 / deadzone=21,11 / fast_pskip=1 / chroma_qp_offset=-2 / threads=6 / lookahead_threads=1 / sliced_threads=0 / nr=0 / decimate=0 / interlaced=0 / bluray_compat=0 / constrained_intra=0 / bframes=8 / b_pyramid=2 / b_adapt=2 / b_bias=0 / direct=3 / weightb=1 / open_gop=0 / weightp=2 / keyint=250 / keyint_min=25 / scenecut=40 / intra_refresh=0 / rc=2pass / mbtree=0 / bitrate=1635 / ratetol=1.0 / qcomp=0.60 / qpmin=0 / qpmax=69 / qpstep=4 / cplxblur=20.0 / qblur=0.5 / ip_ratio=1.40 / pb_ratio=1.30 / aq=1:1.00
Default                                  : Да
Forced                                   : Нет

Аудио
Идентификатор                            : 2
Формат                                   : AC-3
Формат/Информация                        : Audio Coding 3
Идентификатор кодека                     : A_AC3
Продолжительность                        : 1 ч. 25 м.
Вид битрейта                             : Постоянный
Битрейт                                  : 192 Кбит/сек
Каналы                                   : 2 канала
Расположение каналов                     : Front: L R
Частота                                  : 48,0 КГц
Частота кадров                           : 31,250 кадров/сек (1536 SPF)
Битовая глубина                          : 16 бит
Метод сжатия                             : С потерями
Размер потока                            : 117 Мбайт (10%)
Default                                  : Да
Forced                                   : Нет



Скриншоты:
[+] Всего файлов в раздаче - 1:
Zhizn.proshla.mimo.1960.SATRip-AVC_[New-team]_by_AVP_Studio.mkv1.09 GB

Текущая раздача:
ДатаКомментарии    РазмерПиры
2018-07-19 U Жизнь прошла мимо (1958) SATRip-AVC от New-Team 1.09 GB ↑ 23 ↓ 3

Показать еще раздачи по запросу жизнь:
2018-07-28 U Тайная жизнь / Внебрачная афера / Extramarital (1998) DVDRip 1.49 GB ↑ 27 ↓ 31
2018-07-09 U Майкл Грегер - Не сдохни! Еда в борьбе за жизнь (2018) FB2 3.00 MB ↑ 165 ↓ 7
2018-07-07 U Моя жизнь (2018) WEB-DLRip от MegaPeer | iTunes 746.75 MB ↑ 136 ↓ 30
2018-07-07 U Моя жизнь (2018) WEB-DLRip-AVC от ivanes20031987 | iTunes 1.45 GB ↑ 128 ↓ 42
2018-07-07 U Моя жизнь (2018) WEB-DLRip от GeneralFilm | iTunes 746.50 MB ↑ 64 ↓ 11
2018-07-06 U Моя жизнь (2018) WEB-DLRip от MegaPeer | iTunes 1К1.46 GB ↑ 269 ↓ 101
2018-06-29 U Эрвин Шредингер - Что такое жизнь? (2018) FB2 1.32 MB ↑ 78 ↓ 0

Отзывы
Зарегистрируйтесь чтобы добавить комментарий.
Обратная связь
Copyleft ©