↑↓Torrent.by
Поиск
Логин: Регистрация
Пароль: Восстановить пароль
Загрузка...

Я худею (2018) HDRip-AVC от ExKinoRay | Лицензия

Скачать ya-hudeyu-2018-hdrip-avc-ot-exkinoray-licenziya.torrent
U Магнитная ссылка Размер: 1.70 GB Раздают: 228 Качают: 10 Добавлен: 2018-07-19 06:30:30
Я худею (2018) HDRip-AVC от ExKinoRay | Лицензия

Оригинальное название: Я худею
Год выпуска: 2018
Жанр:  Комедия
Выпущено: Россия, Vice Films
Режиссер: Алексей Нужный
В ролях: Александра Бортич, Ирина Горбачева, Сергей Шнуров, Евгений Кулик, Роман Курцын, Александр Пташенчук, Елена Валюшкина, Валерия Дергилева, Андрей Трушин

О фильме: В жизни Ани есть две главные любви - её парень Женя и еда. Из-за еды они и расстаются: Жене совсем не нравится, как Аня стала выглядеть. Аня не готова просто сдаться. При поддержке лучшей подруги и увлечённого здоровым образом жизни добряка Коли она пускается в увлекательное приключение, чтобы похудеть и обрести любовь и счастье.

Продолжительность: 01:42:40
Язык: Русский

Файл
Формат: MKV
Качество: HDRip-AVC
Видео: MPEG-4 AVC, 1024x458 (2.25:1), 24.000 fps, 1920 Kbps, 0.171 bit/pixel
Аудио: 48 kHz, AC3, 5.1 ch, ~448 kbps avg - Rus

Релиз:

Автор релиза:


[+] MI
General
Unique ID                                : 231446545143316763054681198296924546462 (0xAE1EFBB1CAE2BB8488B7CAC857C1E59E)
Complete name                            : D:Ja.Hudeyu.2018.O.HDRip.AVC.ExKinoRay.mkv
Format                                   : Matroska
Format version                           : Version 2
File size                                : 1.70 GiB
Duration                                 : 1 h 42 min
Overall bit rate                         : 2 364 kb/s
Movie name                               :  Я худею (2018) from ExKinoRay
Encoded date                             : UTC 2018-07-18 02:45:21
Writing application                      : mkvmerge v5.6.0 ('Kenya Kane') built on May 27 2012 16:44:04
Writing library                          : libebml v1.2.3 + libmatroska v1.3.0

Video
ID                                       : 1
Format                                   : AVC
Format/Info                              : Advanced Video Codec
Format profile                           : High@L4.1
Format settings, CABAC                   : Yes
Format settings, ReFrames                : 12 frames
Codec ID                                 : V_MPEG4/ISO/AVC
Duration                                 : 1 h 42 min
Bit rate                                 : 1 920 kb/s
Width                                    : 1 024 pixels
Height                                   : 458 pixels
Display aspect ratio                     : 2.25:1
Frame rate mode                          : Constant
Frame rate                               : 24.000 FPS
Color space                              : YUV
Chroma subsampling                       : 4:2:0
Bit depth                                : 8 bits
Scan type                                : Progressive
Bits/(Pixel*Frame)                       : 0.171
Stream size                              : 1.34 GiB (79%)
Title                                    : Enigma
Writing library                          : x264 core 148 r2638 7599210
Encoding settings                        : cabac=1 / ref=12 / deblock=1:-2:-2 / analyse=0x3:0x113 / me=umh / subme=11 / psy=1 / psy_rd=1.00:0.05 / mixed_ref=1 / me_range=32 / chroma_me=1 / trellis=2 / 8x8dct=1 / cqm=0 / deadzone=21,11 / fast_pskip=0 / chroma_qp_offset=-3 / threads=12 / lookahead_threads=3 / sliced_threads=0 / nr=0 / decimate=1 / interlaced=0 / bluray_compat=0 / constrained_intra=0 / bframes=10 / b_pyramid=2 / b_adapt=2 / b_bias=0 / direct=3 / weightb=1 / open_gop=0 / weightp=2 / keyint=240 / keyint_min=24 / scenecut=40 / intra_refresh=0 / rc_lookahead=40 / rc=2pass / mbtree=0 / bitrate=1920 / ratetol=1.0 / qcomp=0.60 / qpmin=0 / qpmax=51 / qpstep=4 / cplxblur=20.0 / qblur=0.5 / vbv_maxrate=50000 / vbv_bufsize=62500 / nal_hrd=none / filler=0 / ip_ratio=1.30 / pb_ratio=1.20 / aq=2:0.90
Default                                  : Yes
Forced                                   : No
Color range                              : Limited
Color primaries                          : BT.709
Transfer characteristics                 : BT.709
Matrix coefficients                      : BT.709

Audio
ID                                       : 2
Format                                   : AC-3
Format/Info                              : Audio Coding 3
Mode extension                           : CM (complete main)
Format settings, Endianness              : Big
Codec ID                                 : A_AC3
Duration                                 : 1 h 42 min
Bit rate mode                            : Constant
Bit rate                                 : 448 kb/s
Channel(s)                               : 6 channels
Channel positions                        : Front: L C R, Side: L R, LFE
Sampling rate                            : 48.0 kHz
Frame rate                               : 31.250 FPS (1536 spf)
Compression mode                         : Lossy
Stream size                              : 329 MiB (19%)
Title                                    : Лицензия
Language                                 : Russian
Default                                  : Yes
Forced                                   : No

Menu
00:00:00.000                             : en:Chapter 1
00:01:17.333                             : en:Chapter 2
00:12:28.125                             : en:Chapter 3
00:23:17.083                             : en:Chapter 4
00:31:58.791                             : en:Chapter 5
00:45:29.125                             : en:Chapter 6
00:56:08.125                             : en:Chapter 7
01:10:30.666                             : en:Chapter 8
01:26:25.708                             : en:Chapter 9




Скриншоты:
[+] Всего файлов в раздаче - 1:
Ja.Hudeyu.2018.O.HDRip.AVC.ExKinoRay.mkv1.70 GB

Текущая раздача:
ДатаКомментарии    РазмерПиры
2018-07-19 U Я худею (2018) HDRip-AVC от ExKinoRay | Лицензия 1.70 GB ↑ 228 ↓ 10

Показать еще раздачи по запросу худею:
2018-07-21 U Я худею (2018) BDRip 720p от HELLYWOOD | Лицензия 4.37 GB ↑ 57 ↓ 27
2018-07-21 U Я худею (2018) BDRip от MegaPeer | Лицензия 1.46 GB ↑ 63 ↓ 6
2018-07-21 U Я худею (2018) BDRip от ExKinoRay | Лицензия 1.46 GB ↑ 38 ↓ 8
2018-07-16 U Я худею (2018) HDRip от Scarabey | Лицензия 1.45 GB ↑ 79 ↓ 26
2018-07-15 U Я худею (2018) HDRip от GeneralFilm | Лицензия 745.31 MB ↑ 93 ↓ 15
2018-07-15 U Я худею (2018) BDRip-AVC | Лицензия 2.18 GB ↑ 137 ↓ 16
2018-07-15 U Я худею (2018) BDRip 720p | Лицензия 5.47 GB ↑ 80 ↓ 27

Отзывы
Зарегистрируйтесь чтобы добавить комментарий.
Обратная связь
Copyleft ©