↑↓Torrent.by
Поиск
Логин: Регистрация
Пароль: Восстановить пароль
Загрузка...

Прощаться не будем (2018) WEB-DLRip | iTunes

Скачать proschatsya-ne-budem-2018-web-dlrip-itunes.torrent
U Магнитная ссылка Размер: 1.46 GB Раздают: 1810 Качают: 528 Добавлен: 2018-07-20 19:07:03
Прощаться не будем (2018) WEB-DLRip | iTunes

Название: Прощаться не будем
Год выхода: 2018
Жанр: Военный, драма, история
Страна: Россия
Перевод: Не требуется
Продолжительность: 01:55:21
Режиссер: Павел Дроздов
В ролях: Андрей Мерзликин, Алена Чехова, Артур Ваха, Анатолий Гущин, Егор Бероев, Юрий Кузнецов, Дагун Омаев, Сергей Горобченко, Родион Долгирев, Анна Чурина и др.

О фильме: Октябрь сорок первого года. Многотысячное немецкое войско наступает на Калинин (ныне Тверь), чтобы, захватив его, открыть себе прямой путь на Москву. На защите города всего две тысячи человек без танков и артиллерии. Единственная надежда задержать врага — эшелоны пятой стрелковой дивизии, которые вот-вот должны пройти через Калининскую станцию. Но диверсанты намерены сделать все, чтобы этого не случилось. Начальник Калининского гарнизона, майор Павел Сысоев, изо всех сил пытаясь сохранить в городе порядок и спокойствие, сам попадает под подозрение в причастности к вражеской диверсионной группе.

Файл
Формат: AVI
Качество: WEB-DLRip
Видео: Xvid, 720x304, ~1420 kbps, 24,000 fps
Звук: русский, AC3 5.1, 48 kHz, 384 kbps | iTunes
Субтитры: нет
[+] MI
General
Полное имя                               : F:TorrentProshchatsyaNeBudem.avi
Формат                                   : AVI
Формат/Информация                        : Audio Video Interleave
Профиль формата                          : OpenDML
Размер файла                             : 1.46 GiB
Продолжительность                        : 1 h 55 min
Общий поток                              : 1 816 kb/s
Программа кодирования                    : XviD4PSP 6.0 / 54.27.101

Video
Идентификатор                            : 0
Формат                                   : MPEG-4 Visual
Профиль формата                          : Advanced Simple@L5
Настройки формата                        : BVOP2 / Custom Matrix
Параметр BVOP формата                    : 2
Параметр QPel формата                    : No
Параметр GMC формата                     : No warppoints
Параметр матрицы формата                 : Custom
Идентификатор кодека                     : XVID
Идентификатор кодека/Подсказка           : XviD
Продолжительность                        : 1 h 55 min
Битрейт                                  : 1 420 kb/s
Ширина                                   : 720 pixels
Высота                                   : 304 pixels
Соотношение сторон                       : 2.35:1
Частота кадров                           : 24.000 FPS
Цветовое пространство                    : YUV
Субдискретизация насыщенности            : 4:2:0
Битовая глубина                          : 8 bits
Тип развёртки                            : Progressive
Метод сжатия                             : Lossy
Бит/(Пиксели*Кадры)                      : 0.270
Размер потока                            : 1.14 GiB (78%)
Библиотека кодирования                   : XviD 67

Audio
Идентификатор                            : 1
Формат                                   : AC-3
Формат/Информация                        : Audio Coding 3
Идентификатор кодека                     : 2000
Продолжительность                        : 1 h 55 min
Вид битрейта                             : Constant
Битрейт                                  : 384 kb/s
Каналы                                   : 6 channels
Расположение каналов                     : Front: L C R, Side: L R, LFE
Частота                                  : 48.0 kHz
Частота кадров                           : 31.250 FPS (1536 SPF)
Битовая глубина                          : 16 bits
Метод сжатия                             : Lossy
Размер потока                            : 317 MiB (21%)
Выравнивание                             : Aligned on interleaves
Продолжительность промежутка             : 32  ms (0.77 video frame)




Скриншоты:
[+] Всего файлов в раздаче - 1:
ProshchatsyaNeBudem.avi1.46 GB

Текущая раздача:
ДатаКомментарии    РазмерПиры
2018-07-20 U Прощаться не будем (2018) WEB-DLRip | iTunes 1.46 GB ↑ 1810 ↓ 528

Похожие раздачи по запросу - прощаться:
2018-07-26 U Прощаться не будем (2018) WEB-DLRip-AVC от ExKinoRay | iTunes 745.07 MB ↑ 152 ↓ 36
2018-07-21 U Прощаться не будем (2018) WEB-DLRip от Generalfilm | КПК | iTunes 438.25 MB ↑ 85 ↓ 14
2018-07-21 U Прощаться не будем (2018) WEB-DLRip-AVC от OlLanDGroup | iTunes 1.46 GB ↑ 378 ↓ 100
2018-07-21 U Прощаться не будем (2018) WEB-DLRip от GeneralFilm | iTunes 746.61 MB ↑ 275 ↓ 59
2018-07-20 U Прощаться не будем (2018) WEB-DL 1080p | iTunes 4.00 GB ↑ 855 ↓ 571

Отзывы
Зарегистрируйтесь чтобы добавить комментарий.
Обратная связь
Copyleft ©