↑↓Torrent.by
Поиск
Логин: Регистрация
Пароль: Восстановить пароль
Загрузка...

Прощаться не будем (2018) WEB-DL 1080p | iTunes

Скачать proschatsya-ne-budem-2018-web-dl-1080p-itunes.torrent
U Магнитная ссылка Размер: 4.00 GB Раздают: 752 Качают: 565 Добавлен: 2018-07-20 19:07:09
Прощаться не будем (2018) WEB-DL 1080p | iTunes

Название: Прощаться не будем
Год выхода: 2018
Жанр: Военный, драма, история
Страна: Россия
Перевод: Не требуется
Продолжительность: 01:55:21
Режиссер: Павел Дроздов
В ролях: Андрей Мерзликин, Алена Чехова, Артур Ваха, Анатолий Гущин, Егор Бероев, Юрий Кузнецов, Дагун Омаев, Сергей Горобченко, Родион Долгирев, Анна Чурина и др.

О фильме: Октябрь сорок первого года. Многотысячное немецкое войско наступает на Калинин (ныне Тверь), чтобы, захватив его, открыть себе прямой путь на Москву. На защите города всего две тысячи человек без танков и артиллерии. Единственная надежда задержать врага — эшелоны пятой стрелковой дивизии, которые вот-вот должны пройти через Калининскую станцию. Но диверсанты намерены сделать все, чтобы этого не случилось. Начальник Калининского гарнизона, майор Павел Сысоев, изо всех сил пытаясь сохранить в городе порядок и спокойствие, сам попадает под подозрение в причастности к вражеской диверсионной группе.

Файл
Формат: MKV
Качество: WEB-DL 1080p
Видео: MPEG-4 AVC, 1920x802, 4575 kbps, 24,000 fps
Звук: русский, AC3 5.1, 48 kHz, 384 kbps | iTunes
Субтитры: нет
[+] MI
General
Уникальный идентификатор                 : 206511743875464079578530556685275722904 (0x9B5CB71365DC56B3A89D05C4B2397498)
Полное имя                               : F:TorrentProshchatsyaNeBudem1080p.mkv
Формат                                   : Matroska
Версия формата                           : Version 4 / Version 2
Размер файла                             : 4.00 GiB
Продолжительность                        : 1 h 55 min
Общий поток                              : 4 961 kb/s
Дата кодирования                         : UTC 2018-07-20 12:53:49
Программа кодирования                    : mkvmerge v9.5.0 ('Quiet Fire') 64bit
Библиотека кодирования                   : libebml v1.3.4 + libmatroska v1.4.5

Video
Идентификатор                            : 1
Формат                                   : AVC
Формат/Информация                        : Advanced Video Codec
Профиль формата                          : High@L4
Настройки формата                        : CABAC / 5 Ref Frames
Параметр CABAC формата                   : Yes
Параметр RefFrames формата               : 5 frames
Идентификатор кодека                     : V_MPEG4/ISO/AVC
Продолжительность                        : 1 h 55 min
Битрейт                                  : 4 575 kb/s
Ширина                                   : 1 920 pixels
Высота                                   : 802 pixels
Соотношение сторон                       : 2.40:1
Режим частоты кадров                     : Constant
Частота кадров                           : 24.000 FPS
Цветовое пространство                    : YUV
Субдискретизация насыщенности            : 4:2:0
Битовая глубина                          : 8 bits
Тип развёртки                            : Progressive
Бит/(Пиксели*Кадры)                      : 0.124
Размер потока                            : 3.69 GiB (92%)
Язык                                     : English
Default                                  : Yes
Forced                                   : No
Цветовой диапазон                        : Limited
Основные цвета                           : BT.709
Характеристики трансфера                 : BT.709
Коэффициенты матрицы                     : BT.709

Audio
Идентификатор                            : 2
Формат                                   : AC-3
Формат/Информация                        : Audio Coding 3
Идентификатор кодека                     : A_AC3
Продолжительность                        : 1 h 55 min
Вид битрейта                             : Constant
Битрейт                                  : 384 kb/s
Каналы                                   : 6 channels
Расположение каналов                     : Front: L C R, Side: L R, LFE
Частота                                  : 48.0 kHz
Частота кадров                           : 31.250 FPS (1536 SPF)
Битовая глубина                          : 16 bits
Метод сжатия                             : Lossy
Размер потока                            : 317 MiB (8%)
Язык                                     : Russian
Default                                  : Yes
Forced                                   : No

Menu
00:00:00.000                             : en:Глава 1
00:07:24.916                             : en:Глава 2
00:14:18.624                             : en:Глава 3
00:21:54.707                             : en:Глава 4
00:29:41.582                             : en:Глава 5
00:35:32.582                             : en:Глава 6
00:40:23.748                             : en:Глава 7
00:45:29.081                             : en:Глава 8
00:52:01.497                             : en:Глава 9
00:59:00.663                             : en:Глава 10
01:07:20.538                             : en:Глава 11
01:13:37.704                             : en:Глава 12
01:18:24.079                             : en:Глава 13
01:27:47.162                             : en:Глава 14
01:35:29.120                             : en:Глава 15
01:40:38.203                             : en:Глава 16
01:47:06.786                             : en:Глава 17




Скриншоты:
[+] Всего файлов в раздаче - 1:
ProshchatsyaNeBudem1080p.mkv4.00 GB

Текущая раздача:
ДатаКомментарии    РазмерПиры
2018-07-20 U Прощаться не будем (2018) WEB-DL 1080p | iTunes 4.00 GB ↑ 752 ↓ 565

Похожие раздачи по запросу - прощаться:
2018-07-26 U Прощаться не будем (2018) WEB-DLRip-AVC от ExKinoRay | iTunes 745.07 MB ↑ 96 ↓ 33
2018-07-21 U Прощаться не будем (2018) WEB-DLRip от Generalfilm | КПК | iTunes 438.25 MB ↑ 85 ↓ 14
2018-07-21 U Прощаться не будем (2018) WEB-DLRip-AVC от OlLanDGroup | iTunes 1.46 GB ↑ 349 ↓ 99
2018-07-21 U Прощаться не будем (2018) WEB-DLRip от GeneralFilm | iTunes 746.61 MB ↑ 177 ↓ 55
2018-07-20 U Прощаться не будем (2018) WEB-DLRip | iTunes 1.46 GB ↑ 1184 ↓ 518

Отзывы
Зарегистрируйтесь чтобы добавить комментарий.
Обратная связь
Copyleft ©