↑↓Torrent.by
Поиск
Логин: Регистрация
Пароль: Восстановить пароль
Загрузка...

Дамы приглашают кавалеров (1980) WEB-DLRip 720p от KORSAR

Скачать damy-priglashayut-kavalerov-1980-web-dlrip-720p-ot-korsar.torrent
U Магнитная ссылка Размер: 2.84 GB Раздают: 37 Качают: 8 Добавлен: 2018-07-21 05:44:20
Дамы приглашают кавалеров (1980) WEB-DLRip 720p от KORSAR

Название: Дамы приглашают кавалеров
Год выпуска: 1980
Жанр:  Мелодрама, комедия
Режиссер: Иван Киасашвили
В ролях: Марина Неелова, Наталья Андрейченко, Мария Виноградова, Татьяна Божок, Леонид Куравлев, Александр Фатюшин, Николай Караченцов, Валерий Носик, Александр Соловьев, Гия Перадзе, Николай Скоробогатов, Петр Олев, Людмила Иванова, Геннадий Ялович

Описание: Любимый муж, дети, тихое семейное счастье — об этом мечтает героиня фильма. Она просто создана для такой жизни — однако ей почему-то не везет. Нет, она не ждет сказочного принца, может многое простить. Только вот без любви и понимания обойтись не в силах.

Страна: СССР
Производство: Мосфильм
Продолжительность: 01:11:58
Перевод: Не требуется

Файл
Качество: WEB-DLRip 720p
Видео: MPEG-4 AVC, 1002x720, 25.000 fps, 4862 Кбит/с
Аудио 1: AC3, 6 ch, 448 Кбит/с
Аудио 2: AC3, 1 ch, 224 Кбит/с
Cубтитры: Нет
Навигация по главам: Есть

Релиз:


[+] MediaInfo
x264 [info]: frame I:559 Avg QP:17.73 size: 126531
x264 [info]: frame P:22201 Avg QP:19.37  size: 65075
x264 [info]: frame B:85190 Avg QP:21.54  size: 13714

======================================

Общее
Уникальный идентификатор                 : 215161294569319273300120378467343678147 (0xA1DE8ED9A3BFF180AE988C5961703AC3)
Полное имя                               : Дамы приглашают кавалеров_1980-WEB-DLRip_720p_KORSAR.mkv
Формат                                   : Matroska
Версия формата                           : Version 2
Размер файла                             : 2,84 Гбайт
Продолжительность                        : 1 ч. 11 м.
Общий поток                              : 5646 Кбит/сек
Дата кодирования                         : UTC 2018-05-16 15:04:25
Программа кодирования                    : mkvmerge v5.8.0 ('No Sleep / Pillow') built on Sep  2 2012 15:37:04
Библиотека кодирования                   : libebml v1.2.3 + libmatroska v1.3.0

Видео
Идентификатор                            : 1
Формат                                   : AVC
Формат/Информация                        : Advanced Video Codec
Профиль формата                          : High@L4.1
Параметр CABAC формата                   : Да
Параметр RefFrames формата               : 11 кадров
Идентификатор кодека                     : V_MPEG4/ISO/AVC
Продолжительность                        : 1 ч. 11 м.
Битрейт                                  : 4862 Кбит/сек
Ширина                                   : 1002 пикселя
Высота                                   : 720 пикселей
Соотношение сторон                       : 1,392
Режим частоты кадров                     : Постоянный
Частота кадров                           : 25,000 кадров/сек
Цветовое пространство                    : YUV
Субдискретизация насыщенности            : 4:2:0
Битовая глубина                          : 8 бит
Тип развёртки                            : Прогрессивная
Бит/(Пиксели*Кадры)                      : 0.270
Размер потока                            : 2,44 Гбайт (86%)
Библиотека кодирования                   : x264 core 152 r2851kMod ba24899
Настройки программы                      : cabac=1 / ref=11 / deblock=1:-2:-1 / analyse=0x3:0x113 / me=umh / subme=10 / psy=1 / fade_compensate=0.00 / psy_rd=1.05:0.10 / mixed_ref=1 / me_range=40 / chroma_me=1 / trellis=2 / 8x8dct=1 / cqm=0 / deadzone=21,11 / fast_pskip=1 / chroma_qp_offset=-3 / threads=12 / lookahead_threads=2 / sliced_threads=0 / nr=0 / decimate=1 / interlaced=0 / bluray_compat=0 / constrained_intra=0 / bframes=9 / b_pyramid=2 / b_adapt=2 / b_bias=0 / direct=1 / weightb=1 / open_gop=0 / weightp=2 / keyint=250 / keyint_min=25 / scenecut=40 / intra_refresh=0 / rc=crf / mbtree=0 / crf=17.8000 / qcomp=0.63 / qpmin=0 / qpmax=39 / qpstep=4 / ip_ratio=1.40 / pb_ratio=1.30 / aq=2:0.80
Язык                                     : English
Default                                  : Да
Forced                                   : Нет
Цветовой диапазон                        : Limited
Основные цвета                           : BT.709
Характеристики трансфера                 : BT.709
Коэффициенты матрицы                     : BT.709

Аудио #1
Идентификатор                            : 2
Формат                                   : AC-3
Формат/Информация                        : Audio Coding 3
Параметр Endianness формата              : Big
Идентификатор кодека                     : A_AC3
Продолжительность                        : 1 ч. 11 м.
Вид битрейта                             : Постоянный
Битрейт                                  : 448 Кбит/сек
Каналы                                   : 6 каналов
Расположение каналов                     : Front: L C R, Side: L R, LFE
Частота                                  : 48,0 КГц
Частота кадров                           : 31,250 кадров/сек (1536 SPF)
Битовая глубина                          : 16 бит
Метод сжатия                             : С потерями
Размер потока                            : 231 Мбайт (8%)
Язык                                     : Russian
Default                                  : Да
Forced                                   : Нет

Аудио #2
Идентификатор                            : 3
Формат                                   : AC-3
Формат/Информация                        : Audio Coding 3
Параметр Endianness формата              : Big
Идентификатор кодека                     : A_AC3
Продолжительность                        : 1 ч. 11 м.
Вид битрейта                             : Постоянный
Битрейт                                  : 224 Кбит/сек
Каналы                                   : 1 канал
Расположение каналов                     : Front: C
Частота                                  : 48,0 КГц
Частота кадров                           : 31,250 кадров/сек (1536 SPF)
Битовая глубина                          : 16 бит
Метод сжатия                             : С потерями
Размер потока                            : 115 Мбайт (4%)
Язык                                     : Russian
Default                                  : Нет
Forced                                   : Нет

Меню
00:00:00.000                             : ru:Глава 1
00:05:03.880                             : ru:Глава 2
00:10:12.120                             : ru:Глава 3
00:16:38.760                             : ru:Глава 4
00:21:39.920                             : ru:Глава 5
00:27:42.120                             : ru:Глава 6
00:33:52.760                             : ru:Глава 7
00:39:48.920                             : ru:Глава 8
00:45:08.600                             : ru:Глава 9
00:51:51.720                             : ru:Глава 10
00:58:36.080                             : ru:Глава 11
01:06:02.880                             : ru:Глава 12



Скриншоты:
[+] Всего файлов в раздаче - 1:
Дамы приглашают кавалеров_1980-WEB-DLRip 720p_KORSAR.mkv2.84 GB

Текущая раздача:
ДатаКомментарии    РазмерПиры
2018-07-21 U Дамы приглашают кавалеров (1980) WEB-DLRip 720p от KORSAR 1 К 2.84 GB ↑ 37 ↓ 8

Похожие раздачи по запросу - дамы:
2013-11-11 U Дамы приглашают кавалеров (1981) DVDRip от New-Team 1.46 GB ↑ 96 ↓ 10

Отзывы
antserh
Прекрасный фильм!

Зарегистрируйтесь чтобы добавить комментарий.
Обратная связь
Copyleft ©